<?xml version="1.0" standalone="no"?>
<!DOCTYPE svg PUBLIC "-//W3C//DTD SVG 1.1//EN" "http://www.w3.org/Graphics/SVG/1.1/DTD/svg11.dtd" >
<svg xmlns="http://www.w3.org/2000/svg" xmlns:xlink="http://www.w3.org/1999/xlink" version="1.1">
<metadata></metadata>
<defs>
<font id="museo_sans700" horiz-adv-x="1280" >
<font-face units-per-em="2048" ascent="1638" descent="-410" />
<missing-glyph horiz-adv-x="498" />
<glyph unicode="&#xfb01;" horiz-adv-x="1257" d="M68 838v206h129v31q0 85 21.5 147t56.5 105t80 69.5t92.5 41t93 19.5t82.5 5q20 0 36.5 -1t27.5 -2q13 -2 24 -3v-221q-6 1 -15 2q-8 1 -18 1.5t-21 0.5q-27 0 -62 -5t-65.5 -23t-51.5 -51.5t-21 -90.5v-25h657v-1044h-260v838h-397v-838h-260v838h-129zM854 1223v231 h258v-231h-258z" />
<glyph unicode="&#xfb02;" horiz-adv-x="1292" d="M68 821v207h129v47q0 85 21.5 147t56.5 105t80 69.5t92.5 41t93 19.5t82.5 5q20 0 36.5 -1t27.5 -2q13 -2 24 -3v-221q-6 1 -15 2q-8 1 -18 1.5t-21 0.5q-27 0 -62 -5t-65.5 -23t-51.5 -51.5t-21 -90.5v-41h223v-207h-223v-821h-260v821h-129zM840 326v1128h258v-1089 q0 -43 7 -71t21 -44t33.5 -22.5t45.5 -6.5h14.5t11.5 1q6 0 12 1v-227q-11 -2 -24 -3q-23 -3 -57 -3q-54 0 -111 10.5t-104 45.5t-77 101.5t-30 178.5z" />
<glyph unicode="&#xfb03;" horiz-adv-x="1968" d="M68 838v206h129v31q0 85 21.5 147t56.5 105t80 69.5t92.5 41t93 19.5t82.5 5q20 0 36.5 -1t27.5 -2q13 -2 24 -3v-221q-6 1 -15 2q-8 1 -18 1.5t-21 0.5q-27 0 -62 -5t-65.5 -23t-51.5 -51.5t-21 -90.5v-25h450v31q0 85 21.5 147t56.5 105t80.5 69.5t92.5 41t93 19.5 t82 5q20 0 36.5 -1t27.5 -2q13 -2 24 -3v-221q-7 1 -15 2q-7 1 -17 1.5t-21 0.5q-28 0 -63 -5t-65.5 -23t-51.5 -51.5t-21 -90.5v-25h658v-1044h-260v838h-398v-838h-260v838h-450v-838h-260v838h-129zM1565 1223v231h258v-231h-258z" />
<glyph unicode="&#xfb04;" horiz-adv-x="2003" d="M68 838v206h129v31q0 85 21.5 147t56.5 105t80 69.5t92.5 41t93 19.5t82.5 5q20 0 36.5 -1t27.5 -2q13 -2 24 -3v-221q-6 1 -15 2q-8 1 -18 1.5t-21 0.5q-27 0 -62 -5t-65.5 -23t-51.5 -51.5t-21 -90.5v-25h450v31q0 85 21.5 147t56.5 105t80.5 69.5t92.5 41t93 19.5 t82 5q20 0 36.5 -1t27.5 -2q13 -2 24 -3v-221q-7 1 -15 2q-7 1 -17 1.5t-21 0.5q-28 0 -63 -5t-65.5 -23t-51.5 -51.5t-21 -90.5v-25h224v-206h-224v-838h-260v838h-450v-838h-260v838h-129zM1550 326v1128h258v-1089q0 -43 7 -71t21 -44t33.5 -22.5t45.5 -6.5h15t12 1 q6 0 12 1v-227q-12 -2 -25 -3q-23 -3 -57 -3q-36 0 -73.5 4t-73.5 16.5t-67.5 35.5t-55.5 60t-38 91t-14 129z" />
<glyph horiz-adv-x="0" />
<glyph unicode="&#xd;" horiz-adv-x="498" />
<glyph unicode=" "  horiz-adv-x="498" />
<glyph unicode="&#x09;" horiz-adv-x="498" />
<glyph unicode="&#xa0;" horiz-adv-x="498" />
<glyph unicode="!" horiz-adv-x="672" d="M201 1454h270l-20 -1034h-228zM211 0v242h252v-242h-252z" />
<glyph unicode="&#x22;" horiz-adv-x="750" d="M115 1053v428h192v-428h-192zM442 1053v428h193v-428h-193z" />
<glyph unicode="#" horiz-adv-x="1446" d="M74 383l30 186h244l51 287h-239l30 188h242l72 410h209l-72 -410h279l71 410h209l-72 -410h248l-33 -188h-245l-51 -287h243l-30 -186h-246l-66 -383h-209l68 383h-281l-65 -383h-209l65 383h-243zM557 569h281l51 287h-281z" />
<glyph unicode="$" horiz-adv-x="1167" d="M92 174l144 199q47 -44 104 -77q49 -29 114.5 -53t143.5 -24q42 0 80 11t67 32.5t46.5 54.5t17.5 78q0 46 -29.5 81t-78.5 64.5t-111 56t-127 56.5t-127 65.5t-111 83.5t-78.5 110t-29.5 145q0 79 28 148t79 123t121.5 90t156.5 50v193h176v-188q89 -8 156.5 -32.5 t112.5 -50.5q53 -31 91 -67l-114 -215q-42 35 -93 63q-44 24 -102 44t-127 20q-46 0 -86 -13t-69.5 -36t-46.5 -55t-17 -70q0 -46 29.5 -79.5t78 -62t110.5 -53.5t127 -54t127 -64.5t110.5 -84t78 -112.5t29.5 -150q0 -78 -26.5 -148.5t-77 -127t-124 -94t-167.5 -49.5v-189 h-176v189q-99 11 -175.5 42.5t-128.5 64.5q-62 39 -106 85z" />
<glyph unicode="%" horiz-adv-x="1622" d="M78 1155q0 66 26 125t71.5 103t106.5 70t130 26t130 -26t107 -70t72.5 -103t26.5 -125q0 -68 -26.5 -127t-72.5 -102.5t-107 -69t-130 -25.5t-130 25.5t-106.5 69t-71.5 102.5t-26 127zM129 0l1116 1454h240l-1116 -1454h-240zM276 1155q0 -29 10.5 -53.5t29 -42.5 t43 -28.5t53.5 -10.5q28 0 53 10.5t43.5 28.5t29.5 42.5t11 53.5q0 28 -11 52.5t-29.5 43t-43.5 29t-53 10.5q-29 0 -53.5 -10.5t-43 -29t-29 -43t-10.5 -52.5zM872 297q0 66 26 125t71 103t106 70t131 26q69 0 130 -26t106.5 -70t71.5 -103t26 -125q0 -67 -26 -125.5 t-71.5 -102t-106.5 -69t-130 -25.5q-70 0 -131 25.5t-106 69t-71 102t-26 125.5zM1071 299q0 -29 10.5 -53.5t28.5 -42.5t42.5 -28.5t53.5 -10.5q28 0 53 10.5t44 28.5t29.5 42.5t10.5 53.5q0 28 -10.5 52.5t-29.5 43t-44 29t-53 10.5q-29 0 -53.5 -10.5t-42.5 -29 t-28.5 -43t-10.5 -52.5z" />
<glyph unicode="&#x26;" horiz-adv-x="1407" d="M92 412q0 59 17 115.5t49 104.5t78 85t104 57v4q-52 24 -92 67q-17 18 -33.5 42.5t-29.5 55.5t-21 69t-8 84q0 97 36 169t98.5 119.5t145.5 71t178 23.5q35 0 69 -4t61 -9q32 -5 61 -12l-64 -209q-14 3 -30 6q-14 2 -31.5 4t-34.5 2q-46 0 -86.5 -12.5t-71 -37t-48 -60.5 t-17.5 -84q0 -32 10 -66t35 -62t68 -46.5t108 -18.5h231v189h261v-189h188v-229h-188v-172q0 -111 -35.5 -202.5t-103 -156t-164.5 -100t-220 -35.5q-118 0 -214 33.5t-164 92.5t-105 139t-37 172zM362 428q0 -44 18 -82.5t51 -67t79 -45t102 -16.5q124 0 193 66.5t69 199.5 v158h-245q-61 0 -110 -13.5t-84 -40t-54 -66.5t-19 -93z" />
<glyph unicode="'" horiz-adv-x="426" d="M115 1053v428h196v-428h-196z" />
<glyph unicode="(" horiz-adv-x="635" d="M133 702q0 223 63 426.5t181 389.5h219q-113 -190 -172 -395t-59 -423q0 -230 57.5 -455.5t173.5 -439.5h-219q-115 187 -179.5 415.5t-64.5 481.5z" />
<glyph unicode=")" horiz-adv-x="635" d="M39 -195q114 214 172.5 439.5t58.5 455.5q0 218 -59.5 423t-171.5 395h219q118 -186 181 -389.5t63 -426.5q0 -253 -64.5 -481.5t-179.5 -415.5h-219z" />
<glyph unicode="*" horiz-adv-x="944" d="M55 1065l70 221l248 -100l-19 268h236l-19 -268l248 100l74 -219l-262 -66v-4l172 -202l-187 -138l-141 226h-4l-141 -226l-187 136l170 204v4z" />
<glyph unicode="+" horiz-adv-x="1296" d="M100 483v203h443v485h211v-485h442v-203h-442v-483h-211v483h-443z" />
<glyph unicode="," horiz-adv-x="543" d="M35 -215l137 479h256l-197 -479h-196z" />
<glyph unicode="-" horiz-adv-x="936" d="M160 471v227h616v-227h-616z" />
<glyph unicode="." horiz-adv-x="526" d="M133 0v260h260v-260h-260z" />
<glyph unicode="/" horiz-adv-x="840" d="M55 -86l520 1614h224l-523 -1614h-221z" />
<glyph unicode="0" horiz-adv-x="1288" d="M117 729q0 157 26.5 293.5t88 238t162 160t249.5 58.5t250 -58.5t163 -160t88.5 -238t26.5 -293.5q0 -105 -11.5 -201t-37 -180t-66.5 -152.5t-99.5 -117.5t-136.5 -76t-177 -27t-176.5 27t-136 76t-99 117.5t-66 152.5t-37 180.5t-11.5 200.5zM387 729q0 -108 12 -201.5 t41.5 -162.5t78.5 -108.5t124 -39.5t124 39.5t78.5 108.5t41.5 162.5t12 201.5q0 106 -12 198.5t-41.5 160.5t-78.5 107.5t-124 39.5t-124 -39.5t-78.5 -107.5t-41.5 -160.5t-12 -198.5z" />
<glyph unicode="1" horiz-adv-x="1049" d="M88 1104l365 350h231v-1227h315v-227h-888v227h315v807v36t1 32q0 17 1 31h-4q-5 -10 -14 -23q-8 -11 -20 -26.5t-30 -32.5l-116 -111z" />
<glyph unicode="2" horiz-adv-x="1188" d="M102 129q0 98 29 177t77 143.5t109 117.5t125 99t125 87.5t109 84t77 88.5t29 100q0 48 -17 85.5t-47 63.5t-70.5 40t-86.5 14q-32 0 -60 -7.5t-52.5 -19.5t-45.5 -27.5t-37 -31.5q-39 -38 -67 -86l-197 131q42 81 110 145q29 27 66 53.5t83.5 47t102 33t120.5 12.5 q96 0 182 -28.5t150.5 -83.5t102.5 -135t38 -183q0 -88 -28 -158.5t-74 -128.5t-104.5 -106t-120 -90t-120.5 -81t-105.5 -79t-75.5 -83.5t-30 -95.5h680v-227h-964q-5 35 -9 66.5t-4 62.5z" />
<glyph unicode="3" horiz-adv-x="1176" d="M72 170l135 203q42 -41 93 -74q44 -28 104 -51t133 -23q57 0 105 16.5t83 45.5t54.5 68.5t19.5 86.5q0 58 -25 100.5t-67.5 70.5t-99 41.5t-120.5 13.5h-100l-59 135l266 315q21 26 40 46.5t33 34.5q17 17 31 30v4q-14 -2 -32 -3q-33 -3 -97 -3h-434v227h889v-166 l-356 -411q75 -11 146.5 -43t127 -85.5t89.5 -127.5t34 -168q0 -93 -34.5 -179.5t-100 -152.5t-161 -106t-216.5 -40q-58 0 -109.5 8.5t-96 22t-82 31t-68.5 35.5q-72 43 -125 98z" />
<glyph unicode="4" horiz-adv-x="1272" d="M57 375v162l627 917h313v-860h189v-219h-189v-375h-260v375h-680zM336 594h401v450q0 27 1.5 54t3.5 49q3 26 6 49h-5q-10 -23 -21 -46q-10 -20 -23 -43.5t-27 -43.5l-336 -465v-4z" />
<glyph unicode="5" horiz-adv-x="1165" d="M88 172l135 199q36 -41 84 -73q41 -28 97.5 -50.5t127.5 -22.5q53 0 102.5 17t88 49t61.5 78t23 104q0 57 -22.5 103.5t-62 79.5t-93 51t-115.5 18q-49 0 -90 -10t-71 -21q-35 -13 -64 -30l-146 53l68 737h764v-227h-537l-22 -240q-2 -15 -3.5 -27t-3.5 -21 q-2 -11 -3 -19h4q19 9 44 16q21 6 49.5 11t61.5 5q121 0 216 -37.5t161 -102.5t100.5 -152t34.5 -185q0 -108 -39.5 -199.5t-109 -158t-165.5 -104.5t-210 -38q-58 0 -108.5 8.5t-94 22t-80 31.5t-65.5 36q-69 43 -117 99z" />
<glyph unicode="6" horiz-adv-x="1237" d="M109 666q0 95 18.5 192.5t55 187.5t92 169t130 137.5t168 92.5t205.5 34q69 0 124.5 -10t93.5 -21q45 -14 79 -31l-78 -227q-27 12 -60 22q-28 8 -65 15.5t-79 7.5q-86 0 -152.5 -33t-114 -87.5t-77.5 -124.5t-43 -144h4q19 22 49.5 41t67 32.5t76.5 21t79 7.5 q108 0 194 -39t147 -105.5t93.5 -154.5t32.5 -186q0 -101 -34.5 -190t-97 -155t-151 -104.5t-196.5 -38.5q-114 0 -215.5 46t-178.5 134.5t-122 217t-45 293.5zM383 573q0 -68 23 -132.5t62.5 -114t91.5 -79.5t110 -30q51 0 91 19t68 52.5t43 78.5t15 96q0 55 -17 104 t-50.5 85.5t-83.5 57.5t-115 21q-50 0 -93 -12t-75.5 -33t-51 -50t-18.5 -63z" />
<glyph unicode="7" horiz-adv-x="1114" d="M72 1227v227h999v-184l-637 -1270h-274l545 1094q17 34 33 58.5t28 41.5q14 19 27 33v4q-10 -1 -24 -2q-12 -1 -31 -1.5t-46 -0.5h-620z" />
<glyph unicode="8" horiz-adv-x="1251" d="M104 422q0 52 13 97.5t34 84.5t46.5 71.5t49.5 56.5t45 40.5t32 24.5q-33 25 -60.5 54.5t-47.5 64.5t-31 76t-11 89q0 75 28 147t86 127.5t145.5 89.5t207.5 34q101 0 187.5 -27.5t149.5 -80t98.5 -127.5t35.5 -169q0 -45 -11 -88t-27.5 -81.5t-36.5 -71t-38 -57.5 t-31.5 -40.5t-17.5 -19.5q40 -26 74.5 -56.5t59.5 -68t39 -83t14 -101.5q0 -84 -34.5 -162t-100 -138.5t-160.5 -96.5t-217 -36q-119 0 -215 34.5t-164 95t-105 142t-37 175.5zM375 442q0 -51 20.5 -94t55 -74t79.5 -48t95 -17q51 0 95 15t77 42.5t52 66.5t19 87t-31 84 t-82 66.5t-115 58t-130 59.5q-18 -15 -41 -38t-44 -54t-35.5 -70t-14.5 -84zM434 1075q0 -50 27 -87t72 -67t103 -55.5t120 -52.5q7 9 23.5 30.5t33 53.5t29 73t12.5 89q0 42 -15.5 76t-44 58t-68.5 37t-89 13q-50 0 -88 -13t-63.5 -35.5t-38.5 -53.5t-13 -66z" />
<glyph unicode="9" horiz-adv-x="1237" d="M88 991q0 101 34.5 190t97 155t151 104.5t196.5 38.5q114 0 215.5 -46t178.5 -134.5t122 -217t45 -293.5q0 -95 -18.5 -192t-55 -187.5t-92 -169.5t-130 -137.5t-168 -92.5t-205.5 -34q-70 0 -125 9.5t-93 21.5q-45 13 -79 31l78 227q27 -13 60 -24q28 -9 64 -16t78 -7 q86 0 152.5 33t114.5 87.5t78 124.5t44 144h-4q-19 -22 -49.5 -41t-67.5 -32.5t-77.5 -21t-79.5 -7.5q-108 0 -194 39t-146 106t-92.5 155.5t-32.5 186.5zM348 991q0 -55 17 -104t51 -86t84 -58.5t116 -21.5q49 0 92.5 12.5t76 33.5t51 50t18.5 62q0 68 -23.5 132.5t-63 114 t-91.5 79.5t-109 30q-51 0 -91.5 -19t-69 -52t-43.5 -77.5t-15 -95.5z" />
<glyph unicode=":" horiz-adv-x="590" d="M166 0v260h258v-260h-258zM166 784v260h258v-260h-258z" />
<glyph unicode=";" horiz-adv-x="598" d="M63 -215l119 479h256l-176 -479h-199zM184 784v260h258v-260h-258z" />
<glyph unicode="&#x3c;" horiz-adv-x="1139" d="M51 502v168l985 438v-227l-710 -293v-4l710 -293v-228z" />
<glyph unicode="=" horiz-adv-x="1335" d="M168 274v201h999v-201h-999zM168 694v201h999v-201h-999z" />
<glyph unicode="&#x3e;" horiz-adv-x="1139" d="M102 63v228l711 293v4l-711 293v227l985 -438v-168z" />
<glyph unicode="?" horiz-adv-x="997" d="M49 1335q43 41 101 74q50 28 121 51t163 23q87 0 167.5 -26.5t143 -76t99.5 -121t37 -161.5q0 -85 -26.5 -146.5t-66 -109.5t-86 -87t-86 -77t-66 -80.5t-26.5 -97.5v-80h-252v98q0 74 25 129.5t62.5 99.5t81.5 80.5t81.5 73.5t62.5 78t25 94q0 36 -15 67t-42 54t-63 36 t-78 13q-45 0 -84 -13.5t-69 -29.5q-35 -19 -66 -43zM272 0v242h252v-242h-252z" />
<glyph unicode="@" horiz-adv-x="1708" d="M104 492q0 106 27 204t76.5 183t119 154.5t155 118.5t185 76t207.5 27q157 0 264.5 -36.5t174 -98t96 -142.5t29.5 -169v-512h149v-186h-567q-104 0 -185.5 32t-138 85t-86.5 121.5t-30 142.5q0 73 29 140.5t85.5 119.5t138.5 83t187 31h174q-2 40 -25.5 73.5t-65 57.5 t-97.5 37t-123 13q-111 0 -207 -46t-166 -123t-110 -177t-40 -209q0 -112 38.5 -212t110.5 -175t175 -118.5t231 -43.5v-203q-183 0 -332.5 58.5t-256 160t-164.5 238.5t-58 295zM838 498q0 -42 14.5 -78.5t40.5 -63.5t62.5 -43t80.5 -16h158v401h-154q-46 0 -83 -16 t-63.5 -43.5t-41 -64t-14.5 -76.5z" />
<glyph unicode="A" horiz-adv-x="1305" d="M2 0l512 1454h277l512 -1454h-273l-123 373h-510l-123 -373h-272zM461 588h381l-129 389q-11 31 -21 69.5t-18 73.5q-10 40 -19 82h-4q-9 -42 -20 -82q-9 -35 -19.5 -73.5t-21.5 -69.5z" />
<glyph unicode="B" horiz-adv-x="1315" d="M184 0v1454h521q98 0 180.5 -25t142 -72.5t92.5 -117.5t33 -160q0 -102 -46.5 -184t-129.5 -127v-4q60 -18 104 -53t73.5 -80.5t43.5 -99.5t14 -109q0 -109 -40.5 -188.5t-109.5 -131.5t-160 -77t-191 -25h-527zM449 227h282q51 0 90 15.5t66 43.5t41 67t14 85 q0 45 -14.5 83.5t-41.5 66.5t-66 43.5t-89 15.5h-282v-420zM449 860h256q43 0 76.5 14.5t56.5 39.5t35 59.5t12 73.5t-11.5 72t-35 57t-58 37.5t-80.5 13.5h-251v-367z" />
<glyph unicode="C" horiz-adv-x="1466" d="M84 733q0 158 56.5 294.5t156.5 237t236.5 157.5t297.5 57q66 0 124.5 -8.5t109 -22.5t92.5 -32t76 -37q79 -44 135 -99l-127 -197q-50 43 -112 77q-53 29 -125.5 53t-159.5 24q-115 0 -205.5 -40t-153.5 -108.5t-96 -159t-33 -192.5q0 -104 34 -198t97.5 -165.5 t154 -114t204.5 -42.5q47 0 90.5 8t81.5 21t71.5 29.5t61.5 33.5q65 40 117 92l139 -190q-63 -66 -147 -118q-36 -22 -81 -43.5t-98 -38t-114.5 -26.5t-130.5 -10q-111 0 -210 26.5t-182.5 75t-150 117t-113 152.5t-71.5 182t-25 205z" />
<glyph unicode="D" horiz-adv-x="1513" d="M184 0v1454h496q168 0 305 -48.5t233.5 -141.5t149.5 -228t53 -307t-53 -307.5t-149.5 -229t-233.5 -143t-305 -49.5h-496zM449 227h217q111 0 200 32.5t152 95.5t97 157t34 217q0 121 -34.5 214t-98 156t-152.5 95.5t-198 32.5h-217v-1000z" />
<glyph unicode="E" horiz-adv-x="1178" d="M184 0v1454h871v-227h-606v-381h489v-228h-489v-391h638v-227h-903z" />
<glyph unicode="F" horiz-adv-x="1083" d="M184 0v1454h836v-227h-571v-412h481v-227h-481v-588h-265z" />
<glyph unicode="G" horiz-adv-x="1556" d="M86 729q0 105 25.5 202t72.5 180t114.5 151t150.5 116.5t181 74.5t206 26q67 0 125.5 -8t108.5 -21t92.5 -30t76.5 -34q79 -40 137 -92l-131 -196q-47 38 -107 69q-51 26 -121.5 48t-158.5 22q-122 0 -215.5 -39.5t-156.5 -107.5t-95.5 -159t-32.5 -194q0 -118 38 -214 t104 -164t155 -105t191 -37q82 0 149 23.5t115 52.5q56 33 100 76v170h-223v227h461v-766h-225v70v22t1 20q0 10 1 19h-4q-47 -44 -110 -78q-54 -29 -132.5 -53.5t-179.5 -24.5q-144 0 -273 53.5t-227 152t-155.5 238t-57.5 310.5z" />
<glyph unicode="H" horiz-adv-x="1563" d="M184 0v1454h265v-616h665v616h264v-1454h-264v610h-665v-610h-265z" />
<glyph unicode="I" horiz-adv-x="633" d="M184 0v1454h265v-1454h-265z" />
<glyph unicode="J" horiz-adv-x="1120" d="M49 430v84h262v-68q0 -65 16.5 -108.5t43.5 -70.5t61.5 -38.5t71.5 -11.5t70.5 11.5t59 37.5t41 67.5t15.5 100.5v793h-375v227h639v-1024q0 -119 -39.5 -205t-103.5 -141.5t-145.5 -82t-165.5 -26.5t-165 27t-144.5 83t-102.5 142t-39 203z" />
<glyph unicode="K" horiz-adv-x="1325" d="M184 0v1454h265v-592h188l342 592h287l-412 -692v-4l436 -758h-297l-356 635h-188v-635h-265z" />
<glyph unicode="L" horiz-adv-x="1104" d="M184 0v1454h265v-1227h628v-227h-893z" />
<glyph unicode="M" horiz-adv-x="1798" d="M139 0l119 1454h283l284 -719q12 -32 25 -69.5t24 -69.5q12 -38 25 -74h4q12 36 24 74q11 32 23 69.5t25 69.5l285 719h282l117 -1454h-262l-62 813q-2 36 -2.5 75.5t-0.5 72.5q0 39 1 77h-4q-13 -41 -26 -81q-11 -35 -25 -73.5t-27 -70.5l-235 -563h-232l-233 563 q-14 32 -27.5 71t-25.5 74q-14 40 -27 82h-4q1 -38 1 -78q0 -34 -0.5 -73.5t-2.5 -75.5l-62 -813h-264z" />
<glyph unicode="N" horiz-adv-x="1556" d="M184 0v1454h265l550 -840q21 -32 42.5 -70.5t38.5 -73.5q20 -40 40 -81h4q-4 40 -7 80q-3 34 -5 73.5t-2 71.5v840h262v-1454h-262l-551 838q-21 32 -42.5 70.5t-38.5 73.5q-20 40 -40 81h-4q3 -40 7 -80q3 -35 5.5 -74t2.5 -71v-838h-265z" />
<glyph unicode="O" horiz-adv-x="1671" d="M84 737q0 104 26 199.5t74 178t115.5 149.5t151 115t181 74t204.5 26t204 -26t180.5 -74t151.5 -115t115.5 -149.5t73.5 -178t26 -199.5q0 -107 -26 -205t-73.5 -182.5t-115.5 -154t-151.5 -118.5t-180.5 -75.5t-204 -26.5t-204.5 26.5t-181 75.5t-151 118.5t-115.5 154 t-74 182.5t-26 205zM356 737q0 -112 37.5 -207.5t102.5 -165t152.5 -108.5t187.5 -39t187 39t152 108.5t102.5 165t37.5 207.5q0 108 -37.5 199.5t-102.5 158t-152 104.5t-187 38t-187.5 -38t-152.5 -104.5t-102.5 -158t-37.5 -199.5z" />
<glyph unicode="P" horiz-adv-x="1257" d="M184 0v1454h561q102 0 187.5 -34t146.5 -96.5t95 -149.5t34 -193t-34 -194t-95 -151.5t-146.5 -98.5t-187.5 -35h-296v-502h-265zM449 731h247q58 0 103 17.5t76.5 50.5t48 79t16.5 103q0 56 -16.5 101.5t-47.5 77.5t-75.5 49.5t-100.5 17.5h-251v-496z" />
<glyph unicode="Q" horiz-adv-x="1692" d="M84 735q0 157 57.5 292.5t158 236t237.5 158t297 57.5q161 0 299 -57.5t239 -158t158 -236t57 -292.5q0 -133 -43.5 -249t-116.5 -212l164 -147l-151 -168l-162 160q-91 -69 -203.5 -106.5t-240.5 -37.5q-107 0 -203.5 27t-180 76t-151 118t-115.5 153.5t-74 182 t-26 203.5zM356 735q0 -111 37 -206t101.5 -164.5t152 -108.5t187.5 -39q66 0 133.5 20.5t119.5 55.5l-161 153l151 166l158 -157q37 60 58.5 131.5t21.5 148.5q0 108 -37 200t-102 159t-153 105t-189 38q-100 0 -187.5 -38t-152 -105t-101.5 -159t-37 -200z" />
<glyph unicode="R" horiz-adv-x="1348" d="M184 0v1454h469q59 0 103.5 -2.5t78.5 -7.5t60.5 -12.5t50.5 -18.5q110 -49 174 -150.5t64 -246.5q0 -65 -17 -127t-48.5 -114.5t-77 -93t-103.5 -63.5v-4q6 -6 14 -16q7 -8 15.5 -22t19.5 -33l299 -543h-295l-289 543h-253v-543h-265zM449 772h237q106 0 167.5 60 t61.5 169q0 52 -12.5 94t-43 71.5t-81.5 45t-129 15.5h-200v-455z" />
<glyph unicode="S" horiz-adv-x="1135" d="M74 174l143 199q48 -44 105 -77q49 -29 114.5 -53t143.5 -24q41 0 79 11t67.5 32.5t47 54.5t17.5 78q0 49 -29.5 85t-78 65.5t-110 55.5t-126 55t-126 64t-110 82t-78 109t-29.5 146q0 90 37 167.5t102.5 134t154.5 88.5t194 32q108 0 189 -24.5t136 -53.5 q64 -34 109 -78l-115 -215q-42 35 -92 63q-44 24 -102 44t-127 20q-46 0 -86 -13t-69.5 -36t-46.5 -55t-17 -70q0 -48 29.5 -83t77.5 -63.5t109.5 -53t125.5 -52.5t125.5 -62.5t109.5 -82.5t77.5 -112t29.5 -151t-32.5 -164t-94 -135.5t-150.5 -92.5t-203 -34 q-61 0 -114.5 8.5t-100 22.5t-86 31.5t-71.5 36.5q-75 44 -129 100z" />
<glyph unicode="T" horiz-adv-x="1235" d="M8 1227v227h1219v-227h-477v-1227h-265v1227h-477z" />
<glyph unicode="U" horiz-adv-x="1501" d="M164 522v932h264v-932q0 -73 23 -129.5t65 -95.5t101.5 -59.5t132.5 -20.5t132.5 20.5t102 59.5t65.5 96t23 131v930h264v-932q0 -122 -42 -222.5t-119 -172.5t-185 -112t-239 -40q-132 0 -240.5 40t-186 112t-119.5 172.5t-42 222.5z" />
<glyph unicode="V" horiz-adv-x="1319" d="M-2 1454h285l319 -948q11 -32 20.5 -69t17 -69t12 -53.5t5.5 -21.5h5q1 0 5.5 21.5t12 53.5t17 69t20.5 69l321 948h283l-530 -1454h-263z" />
<glyph unicode="W" horiz-adv-x="1978" d="M53 1454h273l229 -1005q7 -31 11.5 -59t7.5 -49q4 -25 6 -46h4q1 0 2 12t3.5 33t7.5 49t13 60l262 1005h230l258 -1005q8 -32 13 -60t7.5 -49t3.5 -33t2 -12h5q1 21 5 46q3 21 7.5 49t11.5 59l240 1005h272l-375 -1454h-305l-223 860q-10 35 -16.5 69.5t-11.5 61.5 q-5 32 -9 60h-4q-4 -28 -9 -60q-5 -27 -12 -61.5t-16 -69.5l-223 -860h-305z" />
<glyph unicode="X" horiz-adv-x="1296" d="M35 0l452 737l-434 717h301l199 -356q17 -32 34 -63.5t30 -57.5q15 -30 28 -57h4q12 27 26 57q12 26 28 57.5t34 63.5l203 356h303l-438 -717l455 -737h-297l-226 391q-18 32 -34 62t-29 55q-15 28 -27 55h-4q-13 -27 -27 -55q-12 -25 -28.5 -55t-34.5 -62l-223 -391 h-295z" />
<glyph unicode="Y" horiz-adv-x="1239" d="M4 1454h299l227 -428q18 -34 33.5 -69t27.5 -63t19 -46t8 -17h5q12 31 26 64q12 28 28 62.5t34 68.5l225 428h299l-483 -846v-608h-265v608z" />
<glyph unicode="Z" horiz-adv-x="1257" d="M78 0v170l645 926q21 32 40.5 56t33.5 41q17 19 32 34v4q-12 -1 -29 -2q-14 -1 -34 -1.5t-45 -0.5h-610v227h1050v-168l-645 -928q-22 -32 -41 -56t-33 -41q-17 -19 -32 -34v-4q12 1 29 2q14 1 33.5 1.5t45.5 0.5h651v-227h-1091z" />
<glyph unicode="[" horiz-adv-x="649" d="M190 -195v1713h404v-189h-182v-1335h182v-189h-404z" />
<glyph unicode="\" horiz-adv-x="842" d="M41 1528h223l522 -1614h-223z" />
<glyph unicode="]" horiz-adv-x="649" d="M55 -6h183v1335h-183v189h404v-1713h-404v189z" />
<glyph unicode="^" horiz-adv-x="1268" d="M133 502l412 952h164l411 -952h-225l-268 678l-269 -678h-225z" />
<glyph unicode="_" horiz-adv-x="1231" d="M41 0h1149v-201h-1149v201z" />
<glyph unicode="`" horiz-adv-x="1010" d="M293 1829h268l156 -279h-211z" />
<glyph unicode="a" horiz-adv-x="1094" d="M55 301q0 83 34 141.5t88.5 98t123 62t137.5 34.5t131 15t105 3h35v15q0 51 -15 86.5t-42 57t-64 31t-80 9.5q-57 0 -108.5 -15.5t-91.5 -34.5q-47 -22 -87 -50l-98 186q50 36 112 64q54 24 128.5 44.5t168.5 20.5q103 0 184 -27.5t136.5 -81t85 -131t29.5 -176.5v-653 h-240v86q0 15 0.5 28.5t1.5 23.5l2 22h-4l-7 -14q-6 -13 -21.5 -34t-40.5 -44.5t-60 -44.5t-82 -34.5t-106 -13.5q-70 0 -134.5 21.5t-113.5 63t-78 102.5t-29 139zM317 313q0 -26 10 -50.5t29.5 -43t49 -30t69.5 -11.5q51 0 94.5 25t75 65t49 88.5t17.5 96.5v24h-45 q-34 0 -72.5 -2t-77.5 -8t-75 -17t-63.5 -29.5t-44 -44.5t-16.5 -63z" />
<glyph unicode="b" horiz-adv-x="1251" d="M143 0v1454h260v-448q0 -20 -0.5 -36.5t-1.5 -27.5q-1 -14 -2 -24h4q29 42 74 75q19 14 43.5 28t54 24.5t65 17t77.5 6.5q106 0 191.5 -40t146 -112t93 -173t32.5 -222q0 -125 -36 -226t-100 -172t-152 -110t-192 -39q-82 0 -140.5 24.5t-96.5 53.5q-45 34 -74 78h-4 q1 -10 2 -21q1 -10 1.5 -23t0.5 -28v-59h-246zM395 516q0 -61 16 -118.5t48.5 -102.5t81.5 -72.5t114 -27.5q54 0 102 21.5t83.5 62.5t56.5 101t21 138q0 75 -19 135.5t-53.5 103t-82.5 66t-106 23.5q-51 0 -98 -19t-83.5 -59t-58.5 -102.5t-22 -149.5z" />
<glyph unicode="c" horiz-adv-x="1116" d="M68 522q0 111 40 210.5t114 174.5t178.5 118.5t234.5 43.5q51 0 95.5 -6.5t82 -17.5t68.5 -25t56 -29q58 -34 99 -78l-114 -178q-33 31 -75 56q-36 21 -86 39t-112 18q-72 0 -130.5 -25.5t-100 -69.5t-64 -103t-22.5 -126q0 -66 23 -125.5t65.5 -104t102.5 -71t134 -26.5 q66 0 122 20.5t98 45.5q48 29 88 67l100 -185q-47 -48 -110 -85q-27 -16 -61 -31.5t-74 -27.5t-86.5 -19t-98.5 -7q-130 0 -234.5 43t-178.5 117t-114 173.5t-40 213.5z" />
<glyph unicode="d" horiz-adv-x="1251" d="M72 522q0 124 35 225.5t97.5 172.5t149.5 110t191 39q86 0 143.5 -21t92.5 -46q41 -29 65 -66h4q-1 7 -1 17q-1 8 -1 19v23v459h260v-1454h-246v86q0 14 0.5 27t1.5 22q1 11 2 19h-4q-28 -50 -74 -90q-39 -34 -101.5 -61.5t-151.5 -27.5q-106 0 -191.5 40t-146 112.5 t-93 173t-32.5 221.5zM334 522q0 -74 19 -134.5t53.5 -103.5t82 -66t105.5 -23q51 0 98 19t83.5 59t58.5 102t22 149q0 61 -16 119t-48.5 103t-81.5 72.5t-114 27.5q-54 0 -101.5 -21.5t-83 -63t-56.5 -101.5t-21 -138z" />
<glyph unicode="e" horiz-adv-x="1135" d="M70 522q0 121 39 221.5t109.5 173t167.5 112.5t214 40q113 0 199.5 -38.5t145 -105.5t88.5 -157.5t30 -194.5q0 -11 -1 -28t-2 -33q-2 -18 -3 -39h-721q6 -68 34 -120t70.5 -86.5t96.5 -52t112 -17.5q63 0 117.5 17.5t95.5 39.5q48 25 88 57l101 -186q-50 -42 -113 -75 q-55 -29 -132 -52t-175 -23q-130 0 -234 43.5t-176.5 118.5t-111.5 174.5t-39 210.5zM344 651h457q-2 53 -18 93.5t-44 68t-65 41.5t-80 14q-100 0 -165.5 -57.5t-84.5 -159.5z" />
<glyph unicode="f" horiz-adv-x="711" d="M68 821v207h129v47q0 85 21.5 147t56.5 105t80 69.5t92.5 41t93 19.5t82.5 5q20 0 36.5 -1t27.5 -2q13 -2 24 -3v-221q-6 1 -15 2q-8 1 -18 1.5t-21 0.5q-27 0 -62 -5t-65.5 -23t-51.5 -51.5t-21 -90.5v-41h223v-207h-223v-821h-260v821h-129z" />
<glyph unicode="g" horiz-adv-x="1237" d="M74 549q0 108 30 202.5t88.5 165t145 111.5t199.5 41q85 0 144 -21t96 -46q43 -29 69 -66h6q-1 4 -1 8q-1 5 -1 21v79h244v-981q0 -90 -22 -161t-60.5 -126t-91 -94t-113.5 -64t-128.5 -36.5t-135.5 -11.5q-49 0 -99 6.5t-98 18.5t-92.5 28.5t-81.5 36.5l78 199 q38 -19 85 -34q39 -13 91.5 -23.5t112.5 -10.5t113.5 13.5t94 43.5t64 78.5t23.5 118.5v61q0 9 0.5 19t1.5 18q1 10 2 19h-4q-47 -69 -116.5 -105.5t-174.5 -36.5q-112 0 -199.5 42.5t-147.5 114.5t-91 168t-31 204zM336 557q0 -68 17.5 -126t50.5 -100.5t82 -66.5t112 -24 q47 0 90.5 15t77.5 50t54 94t20 148t-20.5 147t-55.5 92.5t-82 48t-100 13.5q-59 0 -105 -20.5t-77.5 -59t-47.5 -92t-16 -119.5z" />
<glyph unicode="h" horiz-adv-x="1255" d="M143 0v1454h260v-504q0 -20 -0.5 -35.5t-1.5 -27.5q-1 -14 -2 -25h4q19 38 52.5 75t79 66.5t103.5 47.5t126 18q87 0 154 -23t113.5 -72t70.5 -124t24 -178v-672h-258v618q0 48 -7 87t-25.5 67t-51 43.5t-82.5 15.5q-51 0 -96 -16t-81.5 -45t-63 -68.5t-41.5 -87.5 q-9 -31 -13 -64.5t-4 -70.5v-479h-260z" />
<glyph unicode="i" horiz-adv-x="547" d="M143 0v1044h260v-1044h-260zM143 1223v231h258v-231h-258z" />
<glyph unicode="j" horiz-adv-x="547" d="M-113 -199q6 -1 13 -2q6 -1 14 -1.5t18 -0.5q18 0 41 2.5t46.5 10t45.5 20.5t39.5 34.5t28 52.5t10.5 73v1054h260v-1075q0 -88 -22.5 -151t-58.5 -106.5t-83 -70t-95 -41t-94.5 -19.5t-82.5 -5q-37 0 -58 3q-12 1 -22 3v219zM143 1223v231h258v-231h-258z" />
<glyph unicode="k" horiz-adv-x="1130" d="M143 0v1454h260v-778h129l252 368h289l-330 -466v-5l371 -573h-299l-276 457h-136v-457h-260z" />
<glyph unicode="l" horiz-adv-x="582" d="M129 326v1128h258v-1089q0 -43 7 -71t21 -44t33.5 -22.5t45.5 -6.5h14.5t11.5 1q6 0 12 1v-227q-11 -2 -24 -3q-23 -3 -57 -3q-54 0 -111 10.5t-104 45.5t-77 101.5t-30 178.5z" />
<glyph unicode="m" horiz-adv-x="1870" d="M143 0v1044h250v-120q0 -15 -0.5 -28t-1.5 -23q-1 -11 -2 -21h4q19 38 51.5 77t76 70t97 50.5t115.5 19.5q121 0 197 -54.5t108 -160.5h4q22 42 57.5 81t81.5 69t101 47.5t117 17.5q163 0 252.5 -96t89.5 -301v-672h-260v623q0 44 -5.5 82t-21 66t-44 44t-73.5 16 q-50 0 -91 -18.5t-73 -51t-54 -75.5t-34 -92q-8 -31 -10 -64.5t-2 -70.5v-459h-260v623q0 42 -4.5 79.5t-19.5 66t-43 45.5t-74 17q-51 0 -92.5 -18.5t-74 -51t-55 -76t-34.5 -93.5q-8 -29 -10.5 -63.5t-2.5 -69.5v-459h-260z" />
<glyph unicode="n" horiz-adv-x="1255" d="M143 0v1044h250v-120q0 -15 -0.5 -28t-1.5 -23q-1 -11 -2 -21h4q17 33 47.5 71t76 70.5t107 54t140.5 21.5q87 0 154 -23t113.5 -72t70.5 -124t24 -178v-672h-258v618q0 48 -7 87t-25.5 67t-51 43.5t-82.5 15.5q-52 0 -97 -15.5t-80.5 -44t-61.5 -67.5t-41 -86 q-11 -32 -15 -67t-4 -72v-479h-260z" />
<glyph unicode="o" d="M66 522q0 120 45 220.5t122.5 173t182 113t223.5 40.5q120 0 224.5 -40.5t182.5 -113t123 -173t45 -220.5t-45 -220.5t-122.5 -173t-182 -113t-223.5 -40.5q-120 0 -224.5 40.5t-182.5 113t-123 173t-45 220.5zM330 522q0 -73 24.5 -133t67 -102.5t99 -66t120.5 -23.5 q63 0 119 23.5t98.5 66t67 102.5t24.5 133q0 72 -24.5 132t-67 103t-98.5 67t-119 24q-64 0 -120.5 -24t-99 -67t-67 -103t-24.5 -132z" />
<glyph unicode="p" horiz-adv-x="1251" d="M143 -410v1454h238v-75q0 -15 -0.5 -28t-1.5 -23q-1 -11 -2 -21h4q29 48 76 86q20 16 45.5 31.5t58 27.5t71.5 19.5t85 7.5q106 0 191.5 -40t146 -112t93 -173t32.5 -222q0 -125 -36 -226t-100 -172t-151.5 -110t-190.5 -39q-78 0 -134 22.5t-93 49.5q-43 32 -72 72h-4 q1 -11 2 -25q1 -12 1.5 -28.5t0.5 -36.5v-439h-260zM395 516q0 -61 16.5 -118.5t49 -102.5t81 -72.5t113.5 -27.5q54 0 102 21.5t83.5 62.5t56.5 101t21 138q0 75 -19 135.5t-53.5 103t-82.5 66t-106 23.5q-51 0 -98 -19t-83.5 -59t-58.5 -102.5t-22 -149.5z" />
<glyph unicode="q" horiz-adv-x="1251" d="M72 522q0 124 35 225.5t97.5 172.5t149.5 110t191 39q43 0 79 -6.5t66.5 -17t55 -24.5t43.5 -28q45 -33 73 -75h4q-1 7 -2 18q-1 9 -1.5 21t-0.5 28v59h246v-1454h-260v451q0 20 0.5 36.5t1.5 28.5q1 14 2 25h-4q-28 -44 -72 -78q-19 -15 -43 -29t-54 -25t-66 -17.5 t-78 -6.5q-106 0 -191.5 40t-146 112.5t-93 173t-32.5 221.5zM334 522q0 -74 19 -134.5t53.5 -103.5t82 -66t105.5 -23q51 0 98 19t83.5 59t58.5 102t22 149q0 61 -16 119t-48.5 103t-81.5 72.5t-114 27.5q-54 0 -101.5 -21.5t-83 -63t-56.5 -101.5t-21 -138z" />
<glyph unicode="r" horiz-adv-x="805" d="M143 0v1044h250v-180q0 -15 -0.5 -28t-1.5 -23l-2 -22h4q18 56 49.5 105t74 85t95.5 57t113 21q9 0 17.5 -0.5t15.5 -1.5q8 -1 14 -2v-256q-8 1 -18 2q-8 1 -19 1.5t-24 0.5q-42 0 -84.5 -12.5t-81 -39t-70 -68t-49.5 -99.5q-12 -39 -17.5 -81.5t-5.5 -88.5v-414h-260z " />
<glyph unicode="s" horiz-adv-x="926" d="M55 129l119 182q35 -32 79 -57q38 -22 90 -39.5t116 -17.5q27 0 52 6t44 18t30 29.5t11 40.5q0 29 -22 51t-57.5 41t-81 36.5t-93.5 39t-93.5 48t-81 62t-57.5 83t-22 110.5q0 73 30.5 130t84.5 96.5t127 60t157 20.5q89 0 154.5 -18.5t109.5 -41.5q51 -26 87 -59 l-97 -192q-29 25 -68 45q-33 17 -80.5 31t-107.5 14q-25 0 -49 -5.5t-42.5 -17t-30 -29.5t-11.5 -42q0 -28 22 -49t57.5 -39t81 -35.5t93.5 -38.5t93.5 -47.5t81 -62t57.5 -83t22 -110.5q0 -65 -27.5 -122.5t-79 -100t-125.5 -67t-167 -24.5q-98 0 -173.5 24t-127.5 53 q-61 33 -105 77z" />
<glyph unicode="t" horiz-adv-x="772" d="M53 821v207h142v301h254v-301h237v-207h-237v-405q0 -65 22 -103.5t54 -59.5t67.5 -27.5t62.5 -6.5q11 0 19.5 0.5t14.5 1.5q7 1 13 2v-227q-9 -2 -21 -3q-21 -3 -58 -3t-83 5t-94.5 19.5t-95 41t-82.5 70t-58 107t-22 150.5v438h-135z" />
<glyph unicode="u" horiz-adv-x="1247" d="M129 373v671h260v-618q0 -48 7 -87t25.5 -67t50 -43.5t79.5 -15.5q70 0 125 29t92 77.5t56.5 112t19.5 133.5v479h260v-1044h-250v119q0 15 0.5 28.5t1.5 23.5l2 22h-4q-19 -41 -53 -80t-80.5 -70t-104 -49.5t-124.5 -18.5q-84 0 -151 22t-114.5 70t-72.5 123.5 t-25 182.5z" />
<glyph unicode="v" horiz-adv-x="1063" d="M0 1044h274l218 -647q7 -23 13.5 -50.5t11 -51t7.5 -39.5t4 -16h4q1 0 4 16t8 39.5t11 51t14 50.5l217 647h275l-375 -1044h-307z" />
<glyph unicode="w" horiz-adv-x="1681" d="M29 1044h274l182 -686q5 -21 9.5 -40.5t6.5 -35.5q3 -18 5 -34h4q3 16 7 34q3 16 7.5 35.5t10.5 40.5l192 684h231l193 -684q11 -42 17 -76q4 -18 6 -34h4q2 16 6 34q3 16 7 35.5t9 40.5l182 686h271l-318 -1044h-288l-177 596q-6 20 -11 40.5t-8 36.5q-4 18 -7 36h-4 q-3 -18 -7 -36q-3 -16 -7.5 -36.5t-10.5 -40.5l-176 -596h-291z" />
<glyph unicode="x" horiz-adv-x="1073" d="M35 0l344 528l-336 516h295l162 -284l12 -22t11 -21q6 -11 12 -23h4q5 12 11 23q5 10 11 21l12 22l162 284h295l-336 -516l344 -528h-288l-183 303q-5 8 -10 18l-9 18q-4 10 -9 19h-4q-5 -9 -9 -19q-5 -8 -10 -18t-10 -18l-182 -303h-289z" />
<glyph unicode="y" horiz-adv-x="1067" d="M-16 1044h292l220 -602q8 -21 15 -45.5t12 -45.5l12 -50h4l10 48l11 44t13 45l205 606h285l-467 -1202q-28 -71 -68 -122.5t-89 -84.5t-105 -49t-115 -16q-48 0 -87 10.5t-68 23.5q-34 15 -62 34l86 194q17 -12 36 -22q17 -8 37.5 -14.5t43.5 -6.5q54 0 102.5 33 t77.5 102l39 92z" />
<glyph unicode="z" horiz-adv-x="1073" d="M72 0v139l469 588q17 22 33.5 39.5t28.5 30.5q14 15 26 26v4q-10 -1 -24 -2q-12 -1 -30 -1.5t-43 -0.5h-440v221h889v-141l-469 -588q-18 -23 -34 -40t-29 -30q-15 -15 -27 -26v-4l24 3q12 1 30 2t44 1h475v-221h-923z" />
<glyph unicode="{" horiz-adv-x="748" d="M88 557v227q48 5 87 30q16 10 31.5 26t28 39t20 53t7.5 69v177q0 78 19 133.5t49.5 94t69.5 62t79 36t78.5 16.5t67.5 4q14 0 25.5 -0.5t19.5 -0.5q10 -1 18 -1v-193q-5 0 -11 1q-5 0 -11.5 0.5t-14.5 0.5q-21 0 -49.5 -5.5t-55 -23.5t-45 -52.5t-18.5 -92.5v-223 q0 -39 -7 -70.5t-19 -57t-27 -45t-31 -34.5q-37 -34 -84 -53v-4q47 -17 84 -50q16 -14 31 -33.5t27 -45t19 -58t7 -71.5v-246q0 -59 18.5 -93.5t45 -52.5t55 -23t49.5 -5h14.5t11.5 1q6 0 11 1v-193q-8 -1 -18 -2q-8 -1 -19.5 -1.5t-25.5 -0.5q-29 0 -67.5 4t-78.5 16.5 t-79 36t-69.5 62t-49.5 95t-19 134.5v199q0 38 -7.5 67.5t-20 51.5t-28 37.5t-31.5 26.5q-39 25 -87 30z" />
<glyph unicode="|" horiz-adv-x="594" d="M186 -330v1960h222v-1960h-222z" />
<glyph unicode="}" horiz-adv-x="748" d="M59 -6q5 -1 11 -1q5 -1 11.5 -1h14.5q21 0 49.5 5t54.5 23t44 52.5t18 93.5v246q0 39 7 71.5t19 58t27.5 45t31.5 33.5q37 33 85 50v4q-48 19 -85 53q-16 15 -31.5 34.5t-27.5 45t-19 57t-7 70.5v223q0 58 -18 92.5t-44 52.5t-54.5 23.5t-49.5 5.5q-8 0 -14.5 -0.5 t-11.5 -0.5q-6 -1 -11 -1v193q8 0 18 1q8 0 20 0.5t26 0.5q29 0 67.5 -4t78.5 -16.5t79 -36t69.5 -62t49 -94t18.5 -133.5v-177q0 -39 7.5 -69t19.5 -53t27.5 -39t32.5 -26q38 -25 87 -30v-227q-49 -5 -87 -30q-17 -11 -32.5 -26.5t-27.5 -37.5t-19.5 -51.5t-7.5 -67.5v-199 q0 -78 -18.5 -134.5t-49 -95t-69.5 -62t-79 -36t-78.5 -16.5t-67.5 -4q-14 0 -26 0.5t-20 1.5q-10 1 -18 2v193z" />
<glyph unicode="~" horiz-adv-x="1249" d="M115 408q0 188 82 280t233 92q51 0 89.5 -14t69 -34.5t55.5 -44.5t50 -44.5t52 -34.5t61 -14t58 15t39.5 39.5t22.5 56.5t7 67h205q0 -189 -81.5 -281t-232.5 -92q-51 0 -89 13.5t-68.5 34.5t-55.5 44.5t-50 44.5t-52 34.5t-61 13.5t-58 -14.5t-39.5 -39t-22.5 -56.5 t-7 -66h-207z" />
<glyph unicode="&#xa1;" horiz-adv-x="625" d="M176 -410l23 1033h227l20 -1033h-270zM186 801v241h250v-241h-250z" />
<glyph unicode="&#xa2;" horiz-adv-x="1180" d="M92 727q0 111 31 208.5t88 174t137 127.5t178 68v172h176v-172q138 -25 239 -113t151 -219l-234 -90q-15 37 -37.5 70.5t-52 58t-66.5 39t-81 14.5q-59 0 -108.5 -25t-84.5 -70t-54.5 -107t-19.5 -136q0 -77 18.5 -139.5t53.5 -106.5t84 -68t111 -24q43 0 80 14 t66.5 38.5t52.5 58t38 71.5l234 -90q-23 -55 -58.5 -110t-84.5 -100.5t-110.5 -77.5t-136.5 -41v-177h-176v177q-98 16 -178 66.5t-137 126.5t-88 173.5t-31 208.5z" />
<glyph unicode="&#xa3;" horiz-adv-x="1210" d="M104 0v227h119v410h-88v178h88v248q0 91 35 167t97 131.5t148 86.5t187 31q83 0 150.5 -23t115.5 -51q56 -33 101 -74l-150 -180q-29 25 -62 44q-29 17 -67.5 30.5t-81.5 13.5q-46 0 -83.5 -14t-64.5 -39t-41.5 -58.5t-14.5 -72.5v-240h362v-178h-362v-410h638v-227 h-1026z" />
<glyph unicode="&#xa5;" horiz-adv-x="1257" d="M47 1454h301l191 -387q20 -42 36.5 -82.5t27.5 -74.5q13 -40 24 -76h4q11 36 24 76q11 34 27.5 74.5t36.5 82.5l190 387h301l-315 -592h201v-155h-281l-51 -101v-67h332v-156h-332v-383h-268v383h-334v156h334v67l-54 101h-280v155h200z" />
<glyph unicode="&#xa7;" horiz-adv-x="963" d="M78 -2l110 176q30 -26 67 -45q32 -17 73.5 -31t91.5 -14q43 0 81.5 12t67 37.5t45.5 64.5t17 93q0 25 -5.5 53.5t-13.5 63.5l-137 661h205l145 -704q7 -28 11 -54t4 -51q0 -83 -26.5 -154t-79 -122.5t-131.5 -81t-183 -29.5q-81 0 -144 19.5t-108 42.5q-52 27 -90 63z M117 1104q0 80 27.5 148.5t81 119t131.5 79t180 28.5q81 0 144 -20t108 -44q52 -28 90 -63l-117 -166q-28 22 -63 40q-30 15 -71 27.5t-89 12.5q-45 0 -83.5 -11t-67 -34t-44.5 -60t-16 -88q0 -22 4 -47.5t10 -54.5l141 -688h-202l-150 704q-6 29 -10 59t-4 58z" />
<glyph unicode="&#xa8;" horiz-adv-x="1010" d="M217 1591v238h201v-238h-201zM594 1591v238h199v-238h-199z" />
<glyph unicode="&#xa9;" horiz-adv-x="1657" d="M94 727q0 104 26 200t74 179.5t114.5 151.5t148 117t174.5 75.5t194 26.5q102 0 197 -26.5t177 -75.5t149 -117t115 -151.5t74 -179.5t26 -200t-26 -200t-74 -179.5t-115 -152.5t-149 -117.5t-177 -75.5t-197 -27q-101 0 -194 27t-174.5 75.5t-148 117.5t-114.5 152.5 t-74 179.5t-26 200zM276 727q0 -123 42.5 -230t116.5 -186t174 -124.5t216 -45.5q118 0 220 45.5t177 124.5t117.5 186t42.5 230q0 122 -42.5 228.5t-117.5 185.5t-177 124.5t-220 45.5q-116 0 -216 -45.5t-174 -124.5t-116.5 -185.5t-42.5 -228.5zM453 723q0 81 28 153.5 t78.5 127t121 86.5t155.5 32q46 0 85 -9.5t71 -24.5t57 -34.5t45 -39.5q46 -48 73 -107l-155 -73q-17 33 -42 59q-21 22 -52.5 40.5t-75.5 18.5q-46 0 -83 -18t-63.5 -49t-40.5 -72.5t-14 -89.5q0 -49 13.5 -91t39.5 -72.5t63 -48t85 -17.5q45 0 77 18t53 41q25 26 40 59 l155 -71q-27 -61 -73 -109q-20 -20 -45 -39.5t-57 -34.5t-71 -24.5t-85 -9.5q-85 0 -155.5 32t-121 86.5t-78.5 127t-28 153.5z" />
<glyph unicode="&#xaa;" horiz-adv-x="846" d="M127 985q0 55 21 93t54 63t75 39t84 20.5t80.5 8t64.5 1.5h18v15q0 30 -9 50.5t-25 32.5t-37.5 17.5t-46.5 5.5q-32 0 -62.5 -8.5t-53.5 -19.5q-28 -12 -52 -27l-66 121q28 21 68 39q33 14 82 26.5t112 12.5q134 0 204.5 -71t70.5 -196v-411h-172v90h-5q-16 -29 -42 -52 q-23 -20 -58 -35.5t-86 -15.5q-41 0 -80 13.5t-70 39t-50 63t-19 85.5zM129 545v139h586v-139h-586zM311 997q0 -31 22 -50t60 -19q28 0 52 13t41 34t26.5 47t9.5 53v15h-22q-27 0 -60 -3t-61.5 -13t-48 -28t-19.5 -49z" />
<glyph unicode="&#xab;" horiz-adv-x="1196" d="M72 578l336 421h247l-336 -421l336 -420h-247zM530 578l336 421h248l-336 -421l336 -420h-248z" />
<glyph unicode="&#xac;" horiz-adv-x="1235" d="M96 694v201h1000v-602h-209v401h-791z" />
<glyph unicode="&#xad;" horiz-adv-x="883" d="M133 471v227h617v-227h-617z" />
<glyph unicode="&#xae;" horiz-adv-x="1657" d="M94 727q0 104 26 200t74 179.5t114.5 151.5t148 117t174.5 75.5t194 26.5q102 0 197 -26.5t177 -75.5t149 -117t115 -151.5t74 -179.5t26 -200t-26 -200t-74 -179.5t-115 -152.5t-149 -117.5t-177 -75.5t-197 -27q-101 0 -194 27t-174.5 75.5t-148 117.5t-114.5 152.5 t-74 179.5t-26 200zM276 727q0 -123 42.5 -230t116.5 -186t174 -124.5t216 -45.5q118 0 220 45.5t177 124.5t117.5 186t42.5 230q0 122 -42.5 228.5t-117.5 185.5t-177 124.5t-220 45.5q-116 0 -216 -45.5t-174 -124.5t-116.5 -185.5t-42.5 -228.5zM569 356v750h312 q55 0 100 -17t77.5 -48t50 -75t17.5 -98q0 -44 -13 -77.5t-33 -57.5t-43.5 -39t-43.5 -20v-4q2 -3 6 -8q3 -5 8 -13.5t13 -21.5l141 -271h-192l-127 277h-99v-277h-174zM743 756h97q51 0 79.5 30t28.5 82q0 54 -28.5 82.5t-77.5 28.5h-99v-223z" />
<glyph unicode="&#xaf;" horiz-adv-x="1010" d="M238 1604v178h536v-178h-536z" />
<glyph unicode="&#xb0;" horiz-adv-x="809" d="M72 1157q0 66 26 125t71 103t106 70t131 26q69 0 129.5 -26t106 -70t71.5 -103t26 -125q0 -68 -26 -126.5t-71.5 -101.5t-106 -68t-129.5 -25q-70 0 -131 25t-106 68t-71 101.5t-26 126.5zM270 1157q0 -29 10.5 -53.5t29 -42.5t43 -28.5t53.5 -10.5q28 0 53 10.5 t43.5 28.5t29.5 42.5t11 53.5q0 28 -11 52.5t-29.5 43t-43.5 29t-53 10.5q-29 0 -53.5 -10.5t-43 -29t-29 -43t-10.5 -52.5z" />
<glyph unicode="&#xb1;" horiz-adv-x="1296" d="M100 483v203h443v485h211v-485h442v-203h-442v-483h-211v483h-443zM129 -174h1040v-201h-1040v201z" />
<glyph unicode="&#xb2;" horiz-adv-x="809" d="M90 950q0 89 31.5 151.5t78.5 109t102 80.5t102 65.5t78.5 64.5t31.5 78q0 48 -36.5 77.5t-90.5 29.5q-35 0 -64.5 -15t-51.5 -33q-26 -21 -46 -47l-127 113q30 45 74 81q38 30 94 55.5t133 25.5q61 0 117.5 -18.5t100 -54t69 -87.5t25.5 -119q0 -73 -29 -126t-72.5 -93 t-95 -70t-96.5 -58t-77 -57.5t-36 -66.5h418v-170h-625q-3 22 -5.5 44t-2.5 40z" />
<glyph unicode="&#xb3;" horiz-adv-x="809" d="M74 983l102 137q22 -27 52 -48q26 -18 62.5 -33t84.5 -15q30 0 56.5 9.5t47 27t32 41t11.5 51.5q0 29 -13.5 51t-36 36.5t-51 22t-59.5 7.5h-71l-41 92l162 184q6 8 14 16l16 16q9 9 19 17v4q-12 -2 -24 -3q-11 -2 -24 -2.5t-24 -0.5h-264v172h573v-125l-202 -229 q48 -9 89 -30.5t71 -54t46.5 -76.5t16.5 -99q0 -59 -23.5 -114t-67.5 -97.5t-107 -68t-142 -25.5q-78 0 -135 21t-95 47q-44 30 -75 69z" />
<glyph unicode="&#xb4;" horiz-adv-x="1010" d="M293 1550l156 279h268l-215 -279h-209z" />
<glyph unicode="&#xb5;" horiz-adv-x="1288" d="M158 -410v1454h258v-618q0 -48 7 -87t25.5 -67t50 -43.5t79.5 -15.5q70 0 124.5 29t92 77.5t56.5 112t19 133.5v479h260v-1044h-249v127q0 11 0.5 22.5t1.5 21.5l2 22h-6q-30 -61 -80 -109q-21 -21 -49 -40.5t-62.5 -34.5t-77 -24.5t-92.5 -9.5q-39 0 -67 6.5t-46 14.5 q-21 10 -34 22h-4q3 -29 7 -59q2 -26 4.5 -55.5t2.5 -55.5v-258h-223z" />
<glyph unicode="&#xb6;" horiz-adv-x="1255" d="M74 975q0 101 38 188.5t103.5 152t153 101.5t186.5 37h625v-227h-437v-1329h-188v596q-99 0 -186.5 37t-153 102t-103.5 153t-38 189zM870 -102v1216h191v-1216h-191z" />
<glyph unicode="&#xb7;" horiz-adv-x="567" d="M158 469v258h252v-258h-252z" />
<glyph unicode="&#xb8;" horiz-adv-x="1010" d="M332 -268q13 -5 27 -9q12 -3 28 -5.5t33 -2.5q37 0 63.5 13t26.5 45q0 29 -28 42t-70 13q-9 0 -16.5 -0.5t-13.5 -1.5q-7 -1 -13 -2l63 227l119 -26v-15l-23 -100q31 -4 58.5 -15t48 -30.5t32 -47t11.5 -63.5q0 -51 -19 -85.5t-50 -55.5t-71 -30t-81 -9q-26 0 -49 2 t-40 5q-20 3 -36 7v144z" />
<glyph unicode="&#xb9;" horiz-adv-x="809" d="M117 1542l231 223h172v-729h187v-170h-570v170h189v424q0 12 0.5 22.5t1.5 18.5q1 9 2 17h-4q-3 -6 -7 -12q-4 -5 -10 -12t-14 -15l-64 -60z" />
<glyph unicode="&#xba;" horiz-adv-x="936" d="M109 1133q0 75 28 138t77 108t114 70.5t139 25.5q75 0 140.5 -25.5t114 -70.5t77 -108t28.5 -138q0 -76 -28.5 -140t-77 -110t-114 -71.5t-140.5 -25.5q-74 0 -139 25.5t-114 71.5t-77 110t-28 140zM139 545v139h660v-139h-660zM295 1133q0 -41 13.5 -74.5t37 -57.5 t55 -37.5t66.5 -13.5q36 0 67.5 13.5t55.5 37.5t37.5 57.5t13.5 74.5q0 40 -13.5 73t-37.5 57t-55.5 37t-67.5 13q-35 0 -66.5 -13t-55 -37t-37 -57t-13.5 -73z" />
<glyph unicode="&#xbb;" horiz-adv-x="1198" d="M82 158l336 420l-336 421h248l336 -421l-336 -420h-248zM543 158l336 420l-336 421h248l335 -421l-335 -420h-248z" />
<glyph unicode="&#xbc;" horiz-adv-x="2001" d="M116 1232l231 223h172v-729h187v-170h-570v170h189v424q0 12 0.5 22.5t1.5 18.5q1 9 2 17h-4q-3 -6 -7 -12q-4 -5 -10 -12t-14 -15l-64 -60zM563 0l688 1454h189l-687 -1454h-190zM1215 204v131l387 565h221v-528h119v-168h-119v-203h-190v203h-418zM1414 372h219v225 q0 20 0.5 40t2.5 37q1 18 3 36h-4q-7 -16 -16 -33q-8 -14 -17 -31t-20 -32l-168 -238v-4z" />
<glyph unicode="&#xbd;" horiz-adv-x="2005" d="M89 1232l231 223h172v-729h187v-170h-570v170h189v424q0 12 0.5 22.5t1.5 18.5q1 9 2 17h-4q-3 -6 -7 -12q-4 -5 -10 -12t-14 -15l-64 -60zM543 0l688 1454h189l-687 -1454h-190zM1251 85q0 89 31.5 151.5t78.5 109t102 80.5t102 65.5t78.5 64.5t31.5 78q0 48 -36.5 77.5 t-90.5 29.5q-35 0 -64.5 -15t-51.5 -33q-26 -21 -46 -47l-127 113q30 45 74 81q38 30 94 55.5t133 25.5q61 0 117.5 -18.5t100 -54t69 -87.5t25.5 -119q0 -73 -29 -126t-72.5 -93t-95 -70t-96.5 -58t-77 -57.5t-36 -66.5h418v-170h-625q-3 22 -5.5 44t-2.5 40z" />
<glyph unicode="&#xbe;" horiz-adv-x="2019" d="M69 673l102 137q22 -27 52 -48q26 -18 62.5 -33t84.5 -15q30 0 56.5 9.5t47 27t32 41t11.5 51.5q0 29 -13.5 51t-36 36.5t-51 22t-59.5 7.5h-71l-41 92l162 184q6 8 14 16l16 16q9 9 19 17v4q-12 -2 -24 -3q-11 -2 -24 -2.5t-24 -0.5h-264v172h573v-125l-202 -229 q48 -9 89 -30.5t71 -54t46.5 -76.5t16.5 -99q0 -59 -23.5 -114t-67.5 -97.5t-107 -68t-142 -25.5q-78 0 -135 21t-95 47q-44 30 -75 69zM555 0l688 1454h189l-687 -1454h-190zM1206 204v131l387 565h221v-528h119v-168h-119v-203h-190v203h-418zM1405 372h219v225 q0 20 0.5 40t2.5 37q1 18 3 36h-4q-7 -16 -16 -33q-8 -14 -17 -31t-20 -32l-168 -238v-4z" />
<glyph unicode="&#xbf;" horiz-adv-x="940" d="M66 -45q0 84 26.5 145.5t66.5 109.5t86 87t86 77.5t66.5 81t26.5 97.5v72h250v-90q0 -74 -25 -129.5t-62 -100t-81 -81.5t-81 -74t-62 -77.5t-25 -92.5q0 -36 15 -68t42 -55t63.5 -36.5t78.5 -13.5q44 0 83 13.5t69 30.5q35 19 65 45l145 -181q-44 -41 -102 -73 q-50 -27 -121 -49.5t-162 -22.5q-87 0 -167.5 26t-143 75t-100 120.5t-37.5 163.5zM424 803v241h250v-241h-250z" />
<glyph unicode="&#xc0;" horiz-adv-x="1305" d="M2 0l512 1454h277l512 -1454h-273l-123 373h-510l-123 -373h-272zM340 1829h268l156 -279h-211zM461 588h381l-129 389q-11 31 -21 69.5t-18 73.5q-10 40 -19 82h-4q-9 -42 -20 -82q-9 -35 -19.5 -73.5t-21.5 -69.5z" />
<glyph unicode="&#xc1;" horiz-adv-x="1305" d="M2 0l512 1454h277l512 -1454h-273l-123 373h-510l-123 -373h-272zM461 588h381l-129 389q-11 31 -21 69.5t-18 73.5q-10 40 -19 82h-4q-9 -42 -20 -82q-9 -35 -19.5 -73.5t-21.5 -69.5zM541 1550l156 279h268l-215 -279h-209z" />
<glyph unicode="&#xc2;" horiz-adv-x="1305" d="M2 0l512 1454h277l512 -1454h-273l-123 373h-510l-123 -373h-272zM333 1550l189 279h260l190 -279h-215l-102 166h-4l-103 -166h-215zM461 588h381l-129 389q-11 31 -21 69.5t-18 73.5q-10 40 -19 82h-4q-9 -42 -20 -82q-9 -35 -19.5 -73.5t-21.5 -69.5z" />
<glyph unicode="&#xc3;" horiz-adv-x="1305" d="M2 0l512 1454h277l512 -1454h-273l-123 373h-510l-123 -373h-272zM280 1552q0 281 229 281q34 0 61 -10t49 -24.5t40 -32t35 -32t35 -24.5t39 -10t36 10.5t24.5 28t14 40.5t4.5 48h177q0 -140 -56 -210.5t-174 -70.5q-34 0 -60.5 10t-48.5 24.5t-40 32t-35 32t-35 24.5 t-39 10t-36 -10.5t-24.5 -27.5t-13.5 -40.5t-4 -48.5h-178zM461 588h381l-129 389q-11 31 -21 69.5t-18 73.5q-10 40 -19 82h-4q-9 -42 -20 -82q-9 -35 -19.5 -73.5t-21.5 -69.5z" />
<glyph unicode="&#xc4;" horiz-adv-x="1305" d="M2 0l512 1454h277l512 -1454h-273l-123 373h-510l-123 -373h-272zM364 1591v238h201v-238h-201zM461 588h381l-129 389q-11 31 -21 69.5t-18 73.5q-10 40 -19 82h-4q-9 -42 -20 -82q-9 -35 -19.5 -73.5t-21.5 -69.5zM741 1591v238h199v-238h-199z" />
<glyph unicode="&#xc5;" horiz-adv-x="1305" d="M2 0l512 1454h277l512 -1454h-273l-123 373h-510l-123 -373h-272zM458 1686q0 40 16.5 70t44 50t62.5 30.5t72 10.5q36 0 70.5 -10.5t61.5 -30.5t43.5 -50t16.5 -70q0 -39 -16.5 -69t-43.5 -50.5t-61.5 -30.5t-70.5 -10q-37 0 -72 10t-62.5 30.5t-44 50.5t-16.5 69z M461 588h381l-129 389q-11 31 -21 69.5t-18 73.5q-10 40 -19 82h-4q-9 -42 -20 -82q-9 -35 -19.5 -73.5t-21.5 -69.5zM583 1686q0 -31 19 -50.5t51 -19.5q31 0 50 19.5t19 50.5q0 32 -19 51.5t-50 19.5t-50.5 -19.5t-19.5 -51.5z" />
<glyph unicode="&#xc6;" horiz-adv-x="1849" d="M-8 0l604 1454h1133v-227h-609v-381h492v-228h-492v-391h639v-227h-901v623h-346l-246 -623h-274zM596 838h262v389h-108z" />
<glyph unicode="&#xc7;" horiz-adv-x="1470" d="M88 733q0 158 56.5 294.5t157 237t237 157.5t297.5 57q66 0 124.5 -8.5t108.5 -22.5t92 -32t76 -37q79 -44 135 -99l-127 -197q-50 43 -112 77q-53 29 -125.5 53t-159.5 24q-115 0 -205.5 -40t-153.5 -108.5t-96 -159t-33 -192.5q0 -104 34 -198t97.5 -165.5t154 -114 t204.5 -42.5q47 0 90.5 8t81.5 21t71.5 29.5t61.5 33.5q65 40 117 92l139 -190q-58 -61 -137 -111q-34 -21 -76 -42t-91.5 -38t-107 -28.5t-122.5 -14.5l-15 -67q31 -4 58.5 -15t48 -30.5t32 -47t11.5 -63.5q0 -51 -19 -85.5t-50 -55.5t-71 -30t-81 -9q-26 0 -49 2t-40 5 q-20 3 -36 7v144q13 -5 27 -9q12 -3 28 -5.5t33 -2.5q37 0 63.5 13t26.5 45q0 29 -28.5 42t-70.5 13q-8 0 -16 -0.5t-14 -1.5q-7 -1 -13 -2l43 158q-147 15 -268.5 78.5t-207.5 163.5t-133.5 230t-47.5 279z" />
<glyph unicode="&#xc8;" horiz-adv-x="1178" d="M184 0v1454h871v-227h-606v-381h489v-228h-489v-391h638v-227h-903zM328 1829h268l156 -279h-211z" />
<glyph unicode="&#xc9;" horiz-adv-x="1178" d="M184 0v1454h871v-227h-606v-381h489v-228h-489v-391h638v-227h-903zM529 1550l156 279h268l-215 -279h-209z" />
<glyph unicode="&#xca;" horiz-adv-x="1178" d="M184 0v1454h871v-227h-606v-381h489v-228h-489v-391h638v-227h-903zM321 1550l189 279h260l190 -279h-215l-102 166h-4l-103 -166h-215z" />
<glyph unicode="&#xcb;" horiz-adv-x="1178" d="M184 0v1454h871v-227h-606v-381h489v-228h-489v-391h638v-227h-903zM352 1591v238h201v-238h-201zM729 1591v238h199v-238h-199z" />
<glyph unicode="&#xcc;" horiz-adv-x="633" d="M7 1829h268l156 -279h-211zM184 0v1454h265v-1454h-265z" />
<glyph unicode="&#xcd;" horiz-adv-x="633" d="M184 0v1454h265v-1454h-265zM206 1550l156 279h268l-215 -279h-209z" />
<glyph unicode="&#xce;" horiz-adv-x="633" d="M-1 1550l189 279h260l190 -279h-215l-102 166h-4l-103 -166h-215zM184 0v1454h265v-1454h-265z" />
<glyph unicode="&#xcf;" horiz-adv-x="633" d="M32 1591v238h201v-238h-201zM184 0v1454h265v-1454h-265zM409 1591v238h199v-238h-199z" />
<glyph unicode="&#xd0;" horiz-adv-x="1552" d="M104 616v215h119v623h496q168 0 305 -48.5t233.5 -141.5t149.5 -228t53 -307t-53 -307.5t-149.5 -229t-233.5 -143t-305 -49.5h-496v616h-119zM487 227h218q110 0 199.5 32.5t152.5 95.5t97 157t34 217q0 121 -34.5 214t-98 156t-152.5 95.5t-198 32.5h-218v-396h271 v-215h-271v-389z" />
<glyph unicode="&#xd1;" horiz-adv-x="1556" d="M184 0v1454h265l550 -840q21 -32 42.5 -70.5t38.5 -73.5q20 -40 40 -81h4q-4 40 -7 80q-3 34 -5 73.5t-2 71.5v840h262v-1454h-262l-551 838q-21 32 -42.5 70.5t-38.5 73.5q-20 40 -40 81h-4q3 -40 7 -80q3 -35 5.5 -74t2.5 -71v-838h-265zM407 1552q0 281 229 281 q34 0 61 -10t49 -24.5t40 -32t35 -32t35 -24.5t39 -10t36 10.5t24.5 28t14 40.5t4.5 48h177q0 -140 -56 -210.5t-174 -70.5q-34 0 -60.5 10t-48.5 24.5t-40 32t-35 32t-35 24.5t-39 10t-36 -10.5t-24.5 -27.5t-13.5 -40.5t-4 -48.5h-178z" />
<glyph unicode="&#xd2;" horiz-adv-x="1671" d="M84 737q0 104 26 199.5t74 178t115.5 149.5t151 115t181 74t204.5 26t204 -26t180.5 -74t151.5 -115t115.5 -149.5t73.5 -178t26 -199.5q0 -107 -26 -205t-73.5 -182.5t-115.5 -154t-151.5 -118.5t-180.5 -75.5t-204 -26.5t-204.5 26.5t-181 75.5t-151 118.5t-115.5 154 t-74 182.5t-26 205zM356 737q0 -112 37.5 -207.5t102.5 -165t152.5 -108.5t187.5 -39t187 39t152 108.5t102.5 165t37.5 207.5q0 108 -37.5 199.5t-102.5 158t-152 104.5t-187 38t-187.5 -38t-152.5 -104.5t-102.5 -158t-37.5 -199.5zM524 1829h268l156 -279h-211z" />
<glyph unicode="&#xd3;" horiz-adv-x="1671" d="M84 737q0 104 26 199.5t74 178t115.5 149.5t151 115t181 74t204.5 26t204 -26t180.5 -74t151.5 -115t115.5 -149.5t73.5 -178t26 -199.5q0 -107 -26 -205t-73.5 -182.5t-115.5 -154t-151.5 -118.5t-180.5 -75.5t-204 -26.5t-204.5 26.5t-181 75.5t-151 118.5t-115.5 154 t-74 182.5t-26 205zM356 737q0 -112 37.5 -207.5t102.5 -165t152.5 -108.5t187.5 -39t187 39t152 108.5t102.5 165t37.5 207.5q0 108 -37.5 199.5t-102.5 158t-152 104.5t-187 38t-187.5 -38t-152.5 -104.5t-102.5 -158t-37.5 -199.5zM723 1550l156 279h268l-215 -279h-209z " />
<glyph unicode="&#xd4;" horiz-adv-x="1671" d="M84 737q0 104 26 199.5t74 178t115.5 149.5t151 115t181 74t204.5 26t204 -26t180.5 -74t151.5 -115t115.5 -149.5t73.5 -178t26 -199.5q0 -107 -26 -205t-73.5 -182.5t-115.5 -154t-151.5 -118.5t-180.5 -75.5t-204 -26.5t-204.5 26.5t-181 75.5t-151 118.5t-115.5 154 t-74 182.5t-26 205zM356 737q0 -112 37.5 -207.5t102.5 -165t152.5 -108.5t187.5 -39t187 39t152 108.5t102.5 165t37.5 207.5q0 108 -37.5 199.5t-102.5 158t-152 104.5t-187 38t-187.5 -38t-152.5 -104.5t-102.5 -158t-37.5 -199.5zM516 1550l189 279h260l190 -279h-215 l-102 166h-4l-103 -166h-215z" />
<glyph unicode="&#xd5;" horiz-adv-x="1671" d="M84 737q0 104 26 199.5t74 178t115.5 149.5t151 115t181 74t204.5 26t204 -26t180.5 -74t151.5 -115t115.5 -149.5t73.5 -178t26 -199.5q0 -107 -26 -205t-73.5 -182.5t-115.5 -154t-151.5 -118.5t-180.5 -75.5t-204 -26.5t-204.5 26.5t-181 75.5t-151 118.5t-115.5 154 t-74 182.5t-26 205zM356 737q0 -112 37.5 -207.5t102.5 -165t152.5 -108.5t187.5 -39t187 39t152 108.5t102.5 165t37.5 207.5q0 108 -37.5 199.5t-102.5 158t-152 104.5t-187 38t-187.5 -38t-152.5 -104.5t-102.5 -158t-37.5 -199.5zM465 1552q0 281 229 281q34 0 61 -10 t49 -24.5t40 -32t35 -32t35 -24.5t39 -10t36 10.5t24.5 28t14 40.5t4.5 48h177q0 -140 -56 -210.5t-174 -70.5q-34 0 -60.5 10t-48.5 24.5t-40 32t-35 32t-35 24.5t-39 10t-36 -10.5t-24.5 -27.5t-13.5 -40.5t-4 -48.5h-178z" />
<glyph unicode="&#xd6;" horiz-adv-x="1671" d="M84 737q0 104 26 199.5t74 178t115.5 149.5t151 115t181 74t204.5 26t204 -26t180.5 -74t151.5 -115t115.5 -149.5t73.5 -178t26 -199.5q0 -107 -26 -205t-73.5 -182.5t-115.5 -154t-151.5 -118.5t-180.5 -75.5t-204 -26.5t-204.5 26.5t-181 75.5t-151 118.5t-115.5 154 t-74 182.5t-26 205zM356 737q0 -112 37.5 -207.5t102.5 -165t152.5 -108.5t187.5 -39t187 39t152 108.5t102.5 165t37.5 207.5q0 108 -37.5 199.5t-102.5 158t-152 104.5t-187 38t-187.5 -38t-152.5 -104.5t-102.5 -158t-37.5 -199.5zM549 1591v238h201v-238h-201zM926 1591 v238h199v-238h-199z" />
<glyph unicode="&#xd7;" horiz-adv-x="1274" d="M96 141l404 445l-404 442l142 143l399 -438l399 438l142 -143l-406 -442l406 -445l-142 -141l-399 438l-399 -438z" />
<glyph unicode="&#xd8;" horiz-adv-x="1679" d="M90 737q0 104 26 199.5t74 178t115.5 149.5t151 115t181 74t204.5 26q103 0 197 -25t178 -70l88 123l116 -80l-88 -122q60 -51 108 -114t82 -135t52 -152.5t18 -166.5q0 -107 -26 -205t-73.5 -182.5t-115.5 -154t-151.5 -118.5t-180.5 -75.5t-204 -26.5q-110 0 -208 27 t-183 78l-97 -133l-116 80l100 137q-116 105 -182 252t-66 321zM362 737q0 -108 33.5 -199.5t93.5 -160.5l580 803q-51 28 -108 42.5t-119 14.5q-100 0 -187.5 -38t-152.5 -104.5t-102.5 -158t-37.5 -199.5zM598 285q54 -32 115 -50t129 -18q100 0 187 39t152 108.5 t102.5 165t37.5 207.5q0 109 -37 200t-102 157z" />
<glyph unicode="&#xd9;" horiz-adv-x="1501" d="M164 522v932h264v-932q0 -73 23 -129.5t65 -95.5t101.5 -59.5t132.5 -20.5t132.5 20.5t102 59.5t65.5 96t23 131v930h264v-932q0 -122 -42 -222.5t-119 -172.5t-185 -112t-239 -40q-132 0 -240.5 40t-186 112t-119.5 172.5t-42 222.5zM438 1829h268l156 -279h-211z" />
<glyph unicode="&#xda;" horiz-adv-x="1501" d="M164 522v932h264v-932q0 -73 23 -129.5t65 -95.5t101.5 -59.5t132.5 -20.5t132.5 20.5t102 59.5t65.5 96t23 131v930h264v-932q0 -122 -42 -222.5t-119 -172.5t-185 -112t-239 -40q-132 0 -240.5 40t-186 112t-119.5 172.5t-42 222.5zM637 1550l156 279h268l-215 -279 h-209z" />
<glyph unicode="&#xdb;" horiz-adv-x="1501" d="M164 522v932h264v-932q0 -73 23 -129.5t65 -95.5t101.5 -59.5t132.5 -20.5t132.5 20.5t102 59.5t65.5 96t23 131v930h264v-932q0 -122 -42 -222.5t-119 -172.5t-185 -112t-239 -40q-132 0 -240.5 40t-186 112t-119.5 172.5t-42 222.5zM430 1550l189 279h260l190 -279 h-215l-102 166h-4l-103 -166h-215z" />
<glyph unicode="&#xdc;" horiz-adv-x="1501" d="M164 522v932h264v-932q0 -73 23 -129.5t65 -95.5t101.5 -59.5t132.5 -20.5t132.5 20.5t102 59.5t65.5 96t23 131v930h264v-932q0 -122 -42 -222.5t-119 -172.5t-185 -112t-239 -40q-132 0 -240.5 40t-186 112t-119.5 172.5t-42 222.5zM463 1591v238h201v-238h-201z M840 1591v238h199v-238h-199z" />
<glyph unicode="&#xdd;" horiz-adv-x="1239" d="M4 1454h299l227 -428q18 -34 33.5 -69t27.5 -63t19 -46t8 -17h5q12 31 26 64q12 28 28 62.5t34 68.5l225 428h299l-483 -846v-608h-265v608zM508 1550l156 279h268l-215 -279h-209z" />
<glyph unicode="&#xde;" horiz-adv-x="1260" d="M184 0v1454h262v-235h297q102 0 187.5 -34.5t146.5 -96.5t95 -149.5t34 -193.5t-34 -193.5t-95 -150.5t-146.5 -98t-187.5 -35h-297v-268h-262zM446 496h248q58 0 103.5 17.5t77 50t47.5 78.5t16 103q0 115 -62.5 180.5t-177.5 65.5h-252v-495z" />
<glyph unicode="&#xdf;" horiz-adv-x="1237" d="M143 0v1083q0 97 40.5 171t106.5 124t151 75.5t175 25.5q88 0 165.5 -27t135 -74.5t90.5 -113t33 -142.5q0 -47 -13.5 -83t-34 -66.5t-44.5 -56t-44.5 -50t-34 -49.5t-13.5 -55t24.5 -56.5t61.5 -54.5t80 -59.5t80 -71.5t61.5 -90t24.5 -115q0 -83 -30.5 -144.5 t-81.5 -102.5t-118 -61.5t-139 -20.5q-71 0 -123 8t-86 18q-40 11 -67 27v221q31 -16 69 -27q32 -10 75 -18t93 -8q28 0 54.5 6.5t47 21t32.5 38t12 57.5t-24.5 63.5t-61.5 58t-80 59t-80 66t-61.5 79.5t-24.5 100q0 40 13.5 73.5t34 62.5t44.5 55.5t44.5 53.5t34 55.5 t13.5 61.5q0 27 -11 52t-32.5 44.5t-53 31t-73.5 11.5q-39 0 -76 -11t-65.5 -34.5t-46 -59.5t-17.5 -87v-1065h-260z" />
<glyph unicode="&#xe0;" horiz-adv-x="1094" d="M55 301q0 83 34 141.5t88.5 98t123 62t137.5 34.5t131 15t105 3h35v15q0 51 -15 86.5t-42 57t-64 31t-80 9.5q-57 0 -108.5 -15.5t-91.5 -34.5q-47 -22 -87 -50l-98 186q50 36 112 64q54 24 128.5 44.5t168.5 20.5q103 0 184 -27.5t136.5 -81t85 -131t29.5 -176.5v-653 h-240v86q0 15 0.5 28.5t1.5 23.5l2 22h-4l-6.5 -13.5t-22 -34.5t-40.5 -44.5t-60 -44.5t-82 -34.5t-106 -13.5q-70 0 -134.5 21.5t-113.5 63t-78 102.5t-29 139zM233 1453h268l156 -279h-211zM317 313q0 -26 10 -50.5t29.5 -43t49 -30t69.5 -11.5q51 0 94.5 25t75 65 t49 88.5t17.5 96.5v24h-45q-34 0 -72.5 -2t-77.5 -8t-75 -17t-63.5 -29.5t-44 -44.5t-16.5 -63z" />
<glyph unicode="&#xe1;" horiz-adv-x="1094" d="M55 301q0 83 34 141.5t88.5 98t123 62t137.5 34.5t131 15t105 3h35v15q0 51 -15 86.5t-42 57t-64 31t-80 9.5q-57 0 -108.5 -15.5t-91.5 -34.5q-47 -22 -87 -50l-98 186q50 36 112 64q54 24 128.5 44.5t168.5 20.5q103 0 184 -27.5t136.5 -81t85 -131t29.5 -176.5v-653 h-240v86q0 15 0.5 28.5t1.5 23.5l2 22h-4l-6.5 -13.5t-22 -34.5t-40.5 -44.5t-60 -44.5t-82 -34.5t-106 -13.5q-70 0 -134.5 21.5t-113.5 63t-78 102.5t-29 139zM317 313q0 -26 10 -50.5t29.5 -43t49 -30t69.5 -11.5q51 0 94.5 25t75 65t49 88.5t17.5 96.5v24h-45 q-34 0 -72.5 -2t-77.5 -8t-75 -17t-63.5 -29.5t-44 -44.5t-16.5 -63zM428 1174l156 279h268l-215 -279h-209z" />
<glyph unicode="&#xe2;" horiz-adv-x="1094" d="M55 301q0 83 34 141.5t88.5 98t123 62t137.5 34.5t131 15t105 3h35v15q0 51 -15 86.5t-42 57t-64 31t-80 9.5q-57 0 -108.5 -15.5t-91.5 -34.5q-47 -22 -87 -50l-98 186q50 36 112 64q54 24 128.5 44.5t168.5 20.5q103 0 184 -27.5t136.5 -81t85 -131t29.5 -176.5v-653 h-240v86q0 15 0.5 28.5t1.5 23.5l2 22h-4l-6.5 -13.5t-22 -34.5t-40.5 -44.5t-60 -44.5t-82 -34.5t-106 -13.5q-70 0 -134.5 21.5t-113.5 63t-78 102.5t-29 139zM221 1174l189 279h260l190 -279h-215l-102 166h-4l-103 -166h-215zM317 313q0 -26 10 -50.5t29.5 -43t49 -30 t69.5 -11.5q51 0 94.5 25t75 65t49 88.5t17.5 96.5v24h-45q-34 0 -72.5 -2t-77.5 -8t-75 -17t-63.5 -29.5t-44 -44.5t-16.5 -63z" />
<glyph unicode="&#xe3;" horiz-adv-x="1094" d="M55 301q0 83 34 141.5t88.5 98t123 62t137.5 34.5t131 15t105 3h35v15q0 51 -15 86.5t-42 57t-64 31t-80 9.5q-57 0 -108.5 -15.5t-91.5 -34.5q-47 -22 -87 -50l-98 186q50 36 112 64q54 24 128.5 44.5t168.5 20.5q103 0 184 -27.5t136.5 -81t85 -131t29.5 -176.5v-653 h-240v86q0 15 0.5 28.5t1.5 23.5l2 22h-4l-6.5 -13.5t-22 -34.5t-40.5 -44.5t-60 -44.5t-82 -34.5t-106 -13.5q-70 0 -134.5 21.5t-113.5 63t-78 102.5t-29 139zM170 1176q0 281 229 281q34 0 61 -10t49 -24.5t40 -32t35 -32t35 -24.5t39 -10t36 10.5t24.5 28t14 40.5 t4.5 48h177q0 -140 -56 -210.5t-174 -70.5q-34 0 -60.5 10t-48.5 24.5t-40 32t-35 32t-35 24.5t-39 10t-36 -10.5t-24.5 -27.5t-13.5 -40.5t-4 -48.5h-178zM317 313q0 -26 10 -50.5t29.5 -43t49 -30t69.5 -11.5q51 0 94.5 25t75 65t49 88.5t17.5 96.5v24h-45q-34 0 -72.5 -2 t-77.5 -8t-75 -17t-63.5 -29.5t-44 -44.5t-16.5 -63z" />
<glyph unicode="&#xe4;" horiz-adv-x="1094" d="M55 301q0 83 34 141.5t88.5 98t123 62t137.5 34.5t131 15t105 3h35v15q0 51 -15 86.5t-42 57t-64 31t-80 9.5q-57 0 -108.5 -15.5t-91.5 -34.5q-47 -22 -87 -50l-98 186q50 36 112 64q54 24 128.5 44.5t168.5 20.5q103 0 184 -27.5t136.5 -81t85 -131t29.5 -176.5v-653 h-240v86q0 15 0.5 28.5t1.5 23.5l2 22h-4l-6.5 -13.5t-22 -34.5t-40.5 -44.5t-60 -44.5t-82 -34.5t-106 -13.5q-70 0 -134.5 21.5t-113.5 63t-78 102.5t-29 139zM254 1215v238h201v-238h-201zM317 313q0 -26 10 -50.5t29.5 -43t49 -30t69.5 -11.5q51 0 94.5 25t75 65 t49 88.5t17.5 96.5v24h-45q-34 0 -72.5 -2t-77.5 -8t-75 -17t-63.5 -29.5t-44 -44.5t-16.5 -63zM631 1215v238h199v-238h-199z" />
<glyph unicode="&#xe5;" horiz-adv-x="1094" d="M55 301q0 83 34 141.5t88.5 98t123 62t137.5 34.5t131 15t105 3h35v15q0 51 -15 86.5t-42 57t-64 31t-80 9.5q-57 0 -108.5 -15.5t-91.5 -34.5q-47 -22 -87 -50l-98 186q50 36 112 64q54 24 128.5 44.5t168.5 20.5q103 0 184 -27.5t136.5 -81t85 -131t29.5 -176.5v-653 h-240v86q0 15 0.5 28.5t1.5 23.5l2 22h-4l-6.5 -13.5t-22 -34.5t-40.5 -44.5t-60 -44.5t-82 -34.5t-106 -13.5q-70 0 -134.5 21.5t-113.5 63t-78 102.5t-29 139zM317 313q0 -26 10 -50.5t29.5 -43t49 -30t69.5 -11.5q51 0 94.5 25t75 65t49 88.5t17.5 96.5v24h-45 q-34 0 -72.5 -2t-77.5 -8t-75 -17t-63.5 -29.5t-44 -44.5t-16.5 -63zM346 1310q0 40 16.5 70t44 50t62.5 30.5t72 10.5q36 0 70.5 -10.5t61.5 -30.5t43.5 -50t16.5 -70q0 -39 -16.5 -69t-43.5 -50.5t-61.5 -30.5t-70.5 -10q-37 0 -72 10t-62.5 30.5t-44 50.5t-16.5 69z M471 1310q0 -31 19 -50.5t51 -19.5q31 0 50 19.5t19 50.5q0 32 -19 51.5t-50 19.5t-50.5 -19.5t-19.5 -51.5z" />
<glyph unicode="&#xe6;" horiz-adv-x="1747" d="M55 301q0 80 32 138t84.5 97t119 62.5t135.5 36t134 16.5t114 4h35v15q0 51 -15.5 86.5t-42.5 57t-64 31t-81 9.5q-56 0 -107.5 -15.5t-91.5 -34.5q-47 -22 -88 -50l-96 184q47 36 109 65q53 25 126 45.5t166 20.5q69 0 122 -10.5t94.5 -30.5t71.5 -48.5t52 -64.5h4 q62 76 149 115t200 39q111 0 196.5 -40t143.5 -109t88 -162.5t30 -200.5q0 -11 -0.5 -24t-1.5 -26l-2 -30h-715q7 -73 34 -125.5t68 -87t94 -51t112 -16.5q63 0 117 17.5t95 38.5q48 25 87 56l102 -184q-50 -42 -113 -75q-55 -29 -132 -52t-175 -23q-156 0 -264.5 61.5 t-173.5 168.5h-4q-5 -12 -18 -34t-35 -47t-53 -51.5t-72.5 -47.5t-94.5 -34.5t-118 -13.5q-72 0 -137 22t-114 63.5t-77.5 101.5t-28.5 137zM317 313q0 -27 10 -51t29.5 -43t49.5 -30t71 -11q53 0 96.5 25t74.5 65t48 89.5t17 97.5v22h-74q-52 0 -109 -6.5t-104 -24.5 t-78 -50t-31 -83zM965 655h450q-2 52 -18.5 91.5t-44 66t-63.5 40t-77 13.5q-99 0 -163 -52.5t-84 -158.5z" />
<glyph unicode="&#xe7;" horiz-adv-x="1118" d="M70 522q0 111 40 210.5t114 174.5t178.5 118.5t234.5 43.5q51 0 95.5 -6.5t82 -17.5t68.5 -25t56 -29q58 -34 99 -78l-114 -178q-33 31 -75 56q-36 21 -86 39t-112 18q-72 0 -130.5 -25.5t-100 -69.5t-64 -103t-22.5 -126q0 -66 23 -125.5t65.5 -104t102.5 -71t134 -26.5 q66 0 122 20.5t98 45.5q48 29 88 67l100 -185q-43 -44 -102 -79q-25 -15 -56 -30t-68 -27.5t-80 -21t-91 -10.5l-15 -67q31 -4 58.5 -15t48 -30.5t32 -47t11.5 -63.5q0 -51 -19 -85.5t-50 -55.5t-71 -30t-81 -9q-26 0 -49 2t-40 5q-20 3 -36 7v144q13 -5 27 -9 q12 -3 28 -5.5t33 -2.5q37 0 63.5 13t26.5 45q0 29 -28 42t-70 13q-9 0 -16.5 -0.5t-13.5 -1.5q-7 -1 -13 -2l43 160q-108 15 -195 62t-148 118.5t-93.5 163t-32.5 194.5z" />
<glyph unicode="&#xe8;" horiz-adv-x="1135" d="M70 522q0 121 39 221.5t109.5 173t167.5 112.5t214 40q113 0 199.5 -38.5t145 -105.5t88.5 -157.5t30 -194.5q0 -11 -1 -28t-2 -33q-2 -18 -3 -39h-721q6 -68 34 -120t70.5 -86.5t96.5 -52t112 -17.5q63 0 117.5 17.5t95.5 39.5q48 25 88 57l101 -186q-50 -42 -113 -75 q-55 -29 -132 -52t-175 -23q-130 0 -234 43.5t-176.5 118.5t-111.5 174.5t-39 210.5zM286 1453h268l156 -279h-211zM344 651h457q-2 53 -18 93.5t-44 68t-65 41.5t-80 14q-100 0 -165.5 -57.5t-84.5 -159.5z" />
<glyph unicode="&#xe9;" horiz-adv-x="1135" d="M70 522q0 121 39 221.5t109.5 173t167.5 112.5t214 40q113 0 199.5 -38.5t145 -105.5t88.5 -157.5t30 -194.5q0 -11 -1 -28t-2 -33q-2 -18 -3 -39h-721q6 -68 34 -120t70.5 -86.5t96.5 -52t112 -17.5q63 0 117.5 17.5t95.5 39.5q48 25 88 57l101 -186q-50 -42 -113 -75 q-55 -29 -132 -52t-175 -23q-130 0 -234 43.5t-176.5 118.5t-111.5 174.5t-39 210.5zM344 651h457q-2 53 -18 93.5t-44 68t-65 41.5t-80 14q-100 0 -165.5 -57.5t-84.5 -159.5zM481 1174l156 279h268l-215 -279h-209z" />
<glyph unicode="&#xea;" horiz-adv-x="1135" d="M70 522q0 121 39 221.5t109.5 173t167.5 112.5t214 40q113 0 199.5 -38.5t145 -105.5t88.5 -157.5t30 -194.5q0 -11 -1 -28t-2 -33q-2 -18 -3 -39h-721q6 -68 34 -120t70.5 -86.5t96.5 -52t112 -17.5q63 0 117.5 17.5t95.5 39.5q48 25 88 57l101 -186q-50 -42 -113 -75 q-55 -29 -132 -52t-175 -23q-130 0 -234 43.5t-176.5 118.5t-111.5 174.5t-39 210.5zM274 1174l189 279h260l190 -279h-215l-102 166h-4l-103 -166h-215zM344 651h457q-2 53 -18 93.5t-44 68t-65 41.5t-80 14q-100 0 -165.5 -57.5t-84.5 -159.5z" />
<glyph unicode="&#xeb;" horiz-adv-x="1135" d="M70 522q0 121 39 221.5t109.5 173t167.5 112.5t214 40q113 0 199.5 -38.5t145 -105.5t88.5 -157.5t30 -194.5q0 -11 -1 -28t-2 -33q-2 -18 -3 -39h-721q6 -68 34 -120t70.5 -86.5t96.5 -52t112 -17.5q63 0 117.5 17.5t95.5 39.5q48 25 88 57l101 -186q-50 -42 -113 -75 q-55 -29 -132 -52t-175 -23q-130 0 -234 43.5t-176.5 118.5t-111.5 174.5t-39 210.5zM307 1215v238h201v-238h-201zM344 651h457q-2 53 -18 93.5t-44 68t-65 41.5t-80 14q-100 0 -165.5 -57.5t-84.5 -159.5zM684 1215v238h199v-238h-199z" />
<glyph unicode="&#xec;" horiz-adv-x="547" d="M-38 1453h268l156 -279h-211zM143 0v1044h260v-1044h-260z" />
<glyph unicode="&#xed;" horiz-adv-x="547" d="M143 0v1044h260v-1044h-260zM161 1174l156 279h268l-215 -279h-209z" />
<glyph unicode="&#xee;" horiz-adv-x="547" d="M-46 1174l189 279h260l190 -279h-215l-102 166h-4l-103 -166h-215zM143 0v1044h260v-1044h-260z" />
<glyph unicode="&#xef;" horiz-adv-x="547" d="M-13 1215v238h201v-238h-201zM143 0v1044h260v-1044h-260zM364 1215v238h199v-238h-199z" />
<glyph unicode="&#xf0;" horiz-adv-x="1198" d="M68 485q0 91 32 175t93.5 149t151 104t204.5 39q49 0 88 -9.5t66 -20.5q32 -13 55 -29h4q-29 65 -78.5 120t-114.5 97l-379 -164l-12 154l228 100q-57 28 -118 48t-118 34l72 205q117 -26 230 -68t212 -102l303 129l12 -152l-180 -80q63 -55 115 -122.5t88.5 -148 t57 -174t20.5 -200.5q0 -70 -12.5 -141t-39.5 -137t-69.5 -123.5t-101.5 -100.5t-136 -67.5t-174 -24.5q-120 0 -212.5 43t-156.5 114.5t-97 163t-33 189.5zM330 479q0 -54 15 -105t45 -90.5t75.5 -64t107.5 -24.5q72 0 122 29.5t82 76.5t46.5 105.5t14.5 115.5q0 49 -17 91 t-48.5 72.5t-76 47.5t-100.5 17q-68 0 -118 -23t-83 -61t-49 -87t-16 -100z" />
<glyph unicode="&#xf1;" horiz-adv-x="1255" d="M143 0v1044h250v-120q0 -15 -0.5 -28t-1.5 -23q-1 -11 -2 -21h4q17 33 47.5 71t76 70.5t107 54t140.5 21.5q87 0 154 -23t113.5 -72t70.5 -124t24 -178v-672h-258v618q0 48 -7 87t-25.5 67t-51 43.5t-82.5 15.5q-52 0 -97 -15.5t-80.5 -44t-61.5 -67.5t-41 -86 q-11 -32 -15 -67t-4 -72v-479h-260zM276 1176q0 281 229 281q34 0 61 -10t49 -24.5t40 -32t35 -32t35 -24.5t39 -10t36 10.5t24.5 28t14 40.5t4.5 48h177q0 -140 -56 -210.5t-174 -70.5q-34 0 -60.5 10t-48.5 24.5t-40 32t-35 32t-35 24.5t-39 10t-36 -10.5t-24.5 -27.5 t-13.5 -40.5t-4 -48.5h-178z" />
<glyph unicode="&#xf2;" d="M66 522q0 120 45 220.5t122.5 173t182 113t223.5 40.5q120 0 224.5 -40.5t182.5 -113t123 -173t45 -220.5t-45 -220.5t-122.5 -173t-182 -113t-223.5 -40.5q-120 0 -224.5 40.5t-182.5 113t-123 173t-45 220.5zM328 1453h268l156 -279h-211zM330 522q0 -73 24.5 -133 t67 -102.5t99 -66t120.5 -23.5q63 0 119 23.5t98.5 66t67 102.5t24.5 133q0 72 -24.5 132t-67 103t-98.5 67t-119 24q-64 0 -120.5 -24t-99 -67t-67 -103t-24.5 -132z" />
<glyph unicode="&#xf3;" d="M66 522q0 120 45 220.5t122.5 173t182 113t223.5 40.5q120 0 224.5 -40.5t182.5 -113t123 -173t45 -220.5t-45 -220.5t-122.5 -173t-182 -113t-223.5 -40.5q-120 0 -224.5 40.5t-182.5 113t-123 173t-45 220.5zM330 522q0 -73 24.5 -133t67 -102.5t99 -66t120.5 -23.5 q63 0 119 23.5t98.5 66t67 102.5t24.5 133q0 72 -24.5 132t-67 103t-98.5 67t-119 24q-64 0 -120.5 -24t-99 -67t-67 -103t-24.5 -132zM529 1174l156 279h268l-215 -279h-209z" />
<glyph unicode="&#xf4;" d="M66 522q0 120 45 220.5t122.5 173t182 113t223.5 40.5q120 0 224.5 -40.5t182.5 -113t123 -173t45 -220.5t-45 -220.5t-122.5 -173t-182 -113t-223.5 -40.5q-120 0 -224.5 40.5t-182.5 113t-123 173t-45 220.5zM321 1174l189 279h260l190 -279h-215l-102 166h-4 l-103 -166h-215zM330 522q0 -73 24.5 -133t67 -102.5t99 -66t120.5 -23.5q63 0 119 23.5t98.5 66t67 102.5t24.5 133q0 72 -24.5 132t-67 103t-98.5 67t-119 24q-64 0 -120.5 -24t-99 -67t-67 -103t-24.5 -132z" />
<glyph unicode="&#xf5;" d="M66 522q0 120 45 220.5t122.5 173t182 113t223.5 40.5q120 0 224.5 -40.5t182.5 -113t123 -173t45 -220.5t-45 -220.5t-122.5 -173t-182 -113t-223.5 -40.5q-120 0 -224.5 40.5t-182.5 113t-123 173t-45 220.5zM268 1176q0 281 229 281q34 0 61 -10t49 -24.5t40 -32 t35 -32t35 -24.5t39 -10t36 10.5t24.5 28t14 40.5t4.5 48h177q0 -140 -56 -210.5t-174 -70.5q-34 0 -60.5 10t-48.5 24.5t-40 32t-35 32t-35 24.5t-39 10t-36 -10.5t-24.5 -27.5t-13.5 -40.5t-4 -48.5h-178zM330 522q0 -73 24.5 -133t67 -102.5t99 -66t120.5 -23.5 q63 0 119 23.5t98.5 66t67 102.5t24.5 133q0 72 -24.5 132t-67 103t-98.5 67t-119 24q-64 0 -120.5 -24t-99 -67t-67 -103t-24.5 -132z" />
<glyph unicode="&#xf6;" d="M66 522q0 120 45 220.5t122.5 173t182 113t223.5 40.5q120 0 224.5 -40.5t182.5 -113t123 -173t45 -220.5t-45 -220.5t-122.5 -173t-182 -113t-223.5 -40.5q-120 0 -224.5 40.5t-182.5 113t-123 173t-45 220.5zM330 522q0 -73 24.5 -133t67 -102.5t99 -66t120.5 -23.5 q63 0 119 23.5t98.5 66t67 102.5t24.5 133q0 72 -24.5 132t-67 103t-98.5 67t-119 24q-64 0 -120.5 -24t-99 -67t-67 -103t-24.5 -132zM352 1215v238h201v-238h-201zM729 1215v238h199v-238h-199z" />
<glyph unicode="&#xf7;" d="M106 483v203h1068v-203h-1068zM522 55v221h234v-221h-234zM522 895v221h234v-221h-234z" />
<glyph unicode="&#xf8;" d="M66 522q0 120 45 220.5t122.5 173t182 113t223.5 40.5q74 0 143 -16t131 -47l82 114l113 -78l-80 -112q87 -72 136.5 -176.5t49.5 -231.5q0 -120 -45 -220.5t-122.5 -173t-182 -113t-223.5 -40.5q-71 0 -136 14.5t-124 39.5l-84 -117l-113 80l80 110q-93 73 -145.5 180 t-52.5 240zM330 522q0 -68 20 -123t58 -98l368 514q-31 16 -65.5 24.5t-69.5 8.5q-64 0 -120.5 -24t-99 -67t-67 -103t-24.5 -132zM518 221q58 -24 123 -24q63 0 119 23.5t98.5 66t67 102.5t24.5 133q0 60 -17.5 112.5t-49.5 94.5z" />
<glyph unicode="&#xf9;" horiz-adv-x="1247" d="M129 373v671h260v-618q0 -48 7 -87t25.5 -67t50 -43.5t79.5 -15.5q70 0 125 29t92 77.5t56.5 112t19.5 133.5v479h260v-1044h-250v119q0 15 0.5 28.5t1.5 23.5l2 22h-4q-19 -41 -53 -80t-80.5 -70t-104 -49.5t-124.5 -18.5q-84 0 -151 22t-114.5 70t-72.5 123.5 t-25 182.5zM305 1453h268l156 -279h-211z" />
<glyph unicode="&#xfa;" horiz-adv-x="1247" d="M129 373v671h260v-618q0 -48 7 -87t25.5 -67t50 -43.5t79.5 -15.5q70 0 125 29t92 77.5t56.5 112t19.5 133.5v479h260v-1044h-250v119q0 15 0.5 28.5t1.5 23.5l2 22h-4q-19 -41 -53 -80t-80.5 -70t-104 -49.5t-124.5 -18.5q-84 0 -151 22t-114.5 70t-72.5 123.5 t-25 182.5zM504 1174l156 279h268l-215 -279h-209z" />
<glyph unicode="&#xfb;" horiz-adv-x="1247" d="M129 373v671h260v-618q0 -48 7 -87t25.5 -67t50 -43.5t79.5 -15.5q70 0 125 29t92 77.5t56.5 112t19.5 133.5v479h260v-1044h-250v119q0 15 0.5 28.5t1.5 23.5l2 22h-4q-19 -41 -53 -80t-80.5 -70t-104 -49.5t-124.5 -18.5q-84 0 -151 22t-114.5 70t-72.5 123.5 t-25 182.5zM297 1174l189 279h260l190 -279h-215l-102 166h-4l-103 -166h-215z" />
<glyph unicode="&#xfc;" horiz-adv-x="1247" d="M129 373v671h260v-618q0 -48 7 -87t25.5 -67t50 -43.5t79.5 -15.5q70 0 125 29t92 77.5t56.5 112t19.5 133.5v479h260v-1044h-250v119q0 15 0.5 28.5t1.5 23.5l2 22h-4q-19 -41 -53 -80t-80.5 -70t-104 -49.5t-124.5 -18.5q-84 0 -151 22t-114.5 70t-72.5 123.5 t-25 182.5zM330 1215v238h201v-238h-201zM707 1215v238h199v-238h-199z" />
<glyph unicode="&#xfd;" horiz-adv-x="1067" d="M-16 1044h292l220 -602q8 -21 15 -45.5t12 -45.5l12 -50h4l10 48l11 44t13 45l205 606h285l-467 -1202q-28 -71 -68 -122.5t-89 -84.5t-105 -49t-115 -16q-48 0 -87 10.5t-68 23.5q-34 15 -62 34l86 194q17 -12 36 -22q17 -8 37.5 -14.5t43.5 -6.5q54 0 102.5 33 t77.5 102l39 92zM424 1174l156 279h268l-215 -279h-209z" />
<glyph unicode="&#xfe;" horiz-adv-x="1249" d="M143 -410v1864h260v-446q0 -20 -0.5 -36t-1.5 -27q-1 -13 -2 -23h4q14 18 38 43.5t61 48.5t88.5 39t120.5 16q106 0 193 -41.5t148 -114.5t94.5 -173t33.5 -218t-34.5 -218.5t-97 -173.5t-149.5 -114t-192 -41q-84 0 -142 22t-94 49q-42 31 -68 71h-4q1 -11 2 -25 q1 -12 1.5 -28.5t0.5 -36.5v-437h-260zM395 520q0 -77 19 -137.5t54 -102t83.5 -63.5t107.5 -22q56 0 103.5 24.5t82 68t54 103.5t19.5 131t-18.5 130.5t-52 103t-81 68t-104.5 24.5q-54 0 -102.5 -17.5t-85 -56.5t-58 -101.5t-21.5 -152.5z" />
<glyph unicode="&#xff;" horiz-adv-x="1067" d="M-16 1044h292l220 -602q8 -21 15 -45.5t12 -45.5l12 -50h4l10 48l11 44t13 45l205 606h285l-467 -1202q-28 -71 -68 -122.5t-89 -84.5t-105 -49t-115 -16q-48 0 -87 10.5t-68 23.5q-34 15 -62 34l86 194q17 -12 36 -22q17 -8 37.5 -14.5t43.5 -6.5q54 0 102.5 33 t77.5 102l39 92zM250 1215v238h201v-238h-201zM627 1215v238h199v-238h-199z" />
<glyph unicode="&#x152;" horiz-adv-x="1982" d="M82 729q0 104 26.5 200t76 178t118.5 149t154 114.5t183.5 73.5t205.5 26q43 0 77.5 -2.5t64.5 -5.5t58 -5.5t58 -2.5h758v-227h-609v-381h492v-228h-492v-391h641v-227h-790q-29 0 -57 -3t-58 -6t-65 -6t-78 -3q-108 0 -206 26.5t-183 74.5t-154 116t-118.5 151t-76 179 t-26.5 200zM354 729q0 -109 37 -204t102.5 -165t155.5 -110.5t197 -40.5q32 0 58 2t46 5q23 3 41 7v1008q-18 3 -41 7q-20 2 -46 4.5t-58 2.5q-107 0 -197 -40.5t-155.5 -110t-102.5 -163.5t-37 -202z" />
<glyph unicode="&#x153;" horiz-adv-x="2015" d="M68 520q0 123 44.5 224t121.5 173.5t179.5 112t219.5 39.5q76 0 140 -15.5t117.5 -43.5t96.5 -68t78 -88h4q31 49 71 89t90.5 68t113 43t137.5 15q113 0 199.5 -38.5t145 -105.5t88.5 -157.5t30 -194.5q0 -11 -1 -28t-3 -33q-2 -18 -3 -39h-718q7 -71 35 -122.5t70 -86 t95 -51t111 -16.5q63 0 117.5 17.5t95.5 39.5q48 25 88 57l100 -186q-49 -42 -112 -75q-54 -29 -132 -52t-176 -23q-81 0 -147.5 16.5t-120 46t-95.5 70.5t-73 89h-4q-35 -49 -78.5 -90t-97.5 -70t-119 -45.5t-143 -16.5q-117 0 -219.5 38.5t-179.5 110t-121.5 172 t-44.5 224.5zM330 520q0 -74 24.5 -134t67 -102t99 -64.5t120.5 -22.5q63 0 119 22.5t98.5 65t67 102.5t24.5 135t-25 135t-67.5 102.5t-98.5 65.5t-118 23q-64 0 -120.5 -23.5t-99 -66t-67 -103t-24.5 -135.5zM1225 651h456q-2 51 -18 91.5t-43 68.5t-63 42.5t-78 14.5 q-103 0 -169.5 -57.5t-84.5 -159.5z" />
<glyph unicode="&#x178;" horiz-adv-x="1239" d="M4 1454h299l227 -428q18 -34 33.5 -69t27.5 -63t19 -46t8 -17h5q12 31 26 64q12 28 28 62.5t34 68.5l225 428h299l-483 -846v-608h-265v608zM334 1591v238h201v-238h-201zM711 1591v238h199v-238h-199z" />
<glyph unicode="&#x2c6;" horiz-adv-x="1012" d="M186 1550l189 279h260l190 -279h-215l-102 166h-4l-103 -166h-215z" />
<glyph unicode="&#x2dc;" horiz-adv-x="1010" d="M133 1552q0 281 229 281q34 0 61 -10t49 -24.5t40 -32t35 -32t35 -24.5t39 -10t36 10.5t24.5 28t14 40.5t4.5 48h177q0 -140 -56 -210.5t-174 -70.5q-34 0 -60.5 10t-48.5 24.5t-40 32t-35 32t-35 24.5t-39 10t-36 -10.5t-24.5 -27.5t-13.5 -40.5t-4 -48.5h-178z" />
<glyph unicode="&#x2000;" horiz-adv-x="923" />
<glyph unicode="&#x2001;" horiz-adv-x="1847" />
<glyph unicode="&#x2002;" horiz-adv-x="923" />
<glyph unicode="&#x2003;" horiz-adv-x="1847" />
<glyph unicode="&#x2004;" horiz-adv-x="615" />
<glyph unicode="&#x2005;" horiz-adv-x="461" />
<glyph unicode="&#x2006;" horiz-adv-x="307" />
<glyph unicode="&#x2007;" horiz-adv-x="307" />
<glyph unicode="&#x2008;" horiz-adv-x="230" />
<glyph unicode="&#x2009;" horiz-adv-x="369" />
<glyph unicode="&#x200a;" horiz-adv-x="102" />
<glyph unicode="&#x2010;" horiz-adv-x="936" d="M160 471v227h616v-227h-616z" />
<glyph unicode="&#x2011;" horiz-adv-x="936" d="M160 471v227h616v-227h-616z" />
<glyph unicode="&#x2012;" horiz-adv-x="936" d="M160 471v227h616v-227h-616z" />
<glyph unicode="&#x2013;" horiz-adv-x="1452" d="M160 483v203h1132v-203h-1132z" />
<glyph unicode="&#x2014;" horiz-adv-x="1862" d="M160 483v203h1542v-203h-1542z" />
<glyph unicode="&#x2018;" horiz-adv-x="485" d="M82 1032l154 447h182l-96 -447h-240z" />
<glyph unicode="&#x2019;" horiz-adv-x="473" d="M90 1030l96 449h240l-152 -449h-184z" />
<glyph unicode="&#x201a;" horiz-adv-x="512" d="M66 -182l96 446h233l-153 -446h-176z" />
<glyph unicode="&#x201c;" horiz-adv-x="821" d="M82 1032l154 447h184l-98 -447h-240zM418 1032l151 447h185l-97 -447h-239z" />
<glyph unicode="&#x201d;" horiz-adv-x="809" d="M90 1030l96 449h242l-154 -449h-184zM426 1030l96 449h240l-152 -449h-184z" />
<glyph unicode="&#x201e;" horiz-adv-x="838" d="M66 -182l96 446h233l-153 -446h-176zM393 -182l96 446h232l-152 -446h-176z" />
<glyph unicode="&#x2022;" horiz-adv-x="852" d="M84 596q0 70 27 132.5t73.5 109t108.5 73.5t133 27t133.5 -27t109 -73.5t73 -109t26.5 -132.5q0 -71 -26.5 -133t-73 -108.5t-109 -73.5t-133.5 -27t-133 27t-108.5 73.5t-73.5 108.5t-27 133z" />
<glyph unicode="&#x2026;" horiz-adv-x="1683" d="M133 0v260h250v-260h-250zM715 0v260h252v-260h-252zM1298 0v260h252v-260h-252z" />
<glyph unicode="&#x202f;" horiz-adv-x="369" />
<glyph unicode="&#x2039;" horiz-adv-x="737" d="M72 578l336 421h247l-336 -421l336 -420h-247z" />
<glyph unicode="&#x203a;" horiz-adv-x="737" d="M82 158l336 420l-336 421h248l336 -421l-336 -420h-248z" />
<glyph unicode="&#x205f;" horiz-adv-x="461" />
<glyph unicode="&#x20ac;" horiz-adv-x="1206" d="M63 512v156h115q-5 24 -5 60t3 67h-113v157h142q33 115 99 212t157.5 167t204 109t239.5 39q44 0 83.5 -4.5t69.5 -9.5q35 -6 66 -13l-63 -240q-24 6 -50 10q-23 4 -51.5 7.5t-60.5 3.5q-73 0 -137 -19.5t-117 -56.5t-93 -89t-65 -116h523l-31 -157h-528q-5 -29 -4 -62.5 t6 -64.5h499l-30 -156h-424q24 -65 65 -118t94.5 -90.5t117 -58t134.5 -20.5q38 0 72.5 4.5t60.5 9.5q30 6 56 15l49 -242q-32 -11 -70 -19q-32 -7 -76.5 -12.5t-95.5 -5.5q-131 0 -245 39.5t-204.5 110.5t-155 169.5t-95.5 217.5h-142z" />
<glyph unicode="&#x2122;" horiz-adv-x="1937" d="M37 1282v172h801v-172h-301v-735h-197v735h-303zM893 547l72 907h182l186 -428q5 -14 10.5 -28.5t9.5 -27.5q4 -15 9 -30h4l8 30q4 13 8.5 27.5t10.5 28.5l188 428h180l70 -907h-195l-34 467q-2 11 -1.5 22.5t1.5 20.5q1 11 2 20h-5l-159 -364h-154l-160 364h-4 q1 -9 2 -20q2 -19 0 -43l-37 -467h-194z" />
<glyph unicode="&#x25fc;" horiz-adv-x="1045" d="M0 0v1045h1045v-1045h-1045z" />
</font>
</defs>
</svg>
