<?xml version="1.0" standalone="no"?>
<!DOCTYPE svg PUBLIC "-//W3C//DTD SVG 1.1//EN" "http://www.w3.org/Graphics/SVG/1.1/DTD/svg11.dtd" >
<svg xmlns="http://www.w3.org/2000/svg" xmlns:xlink="http://www.w3.org/1999/xlink" version="1.1">
<metadata></metadata>
<defs>
<font id="museo_sans500_italic" horiz-adv-x="1073" >
<font-face units-per-em="2048" ascent="1638" descent="-410" />
<missing-glyph horiz-adv-x="526" />
<glyph unicode="&#xfb01;" horiz-adv-x="1194" d="M92 0l170 874h-129l31 162h129l8 39q16 85 47 146.5t71 103.5t85 68t90 40t85.5 18.5t70.5 4.5q20 0 36.5 -1t28.5 -2q14 -2 25 -3l-37 -170q-5 1 -12 2q-6 1 -15 1.5t-20 0.5q-29 0 -68 -7t-76.5 -29.5t-68.5 -65.5t-45 -115l-6 -31h630l-202 -1036h-199l170 874h-430 l-170 -874h-199zM961 1243l38 203h205l-41 -203h-202z" />
<glyph unicode="&#xfb02;" horiz-adv-x="1227" d="M92 0l168 864h-129l31 162h129l10 49q16 85 47 146.5t71 103.5t85 68t90 40t85.5 18.5t70.5 4.5q20 0 36.5 -1t28.5 -2q14 -2 25 -3l-37 -170q-5 1 -12 2q-6 1 -15 1.5t-20 0.5q-29 0 -68 -7t-76.5 -29.5t-68.5 -65.5t-45 -115l-9 -41h244l-31 -162h-243l-168 -864h-199z M758 209q0 18 2.5 40.5t7.5 47.5l223 1149h199l-215 -1114q-5 -22 -7.5 -41.5t-2.5 -36.5q0 -29 8.5 -45.5t21.5 -25t29.5 -11t32.5 -2.5h12.5t10.5 1q5 0 9 1l-36 -176q-8 -1 -18 -2q-8 -1 -19.5 -1.5t-22.5 -0.5q-41 0 -82.5 9t-75.5 33.5t-55.5 66.5t-21.5 108z" />
<glyph unicode="&#xfb03;" horiz-adv-x="1880" d="M92 0l170 874h-129l31 162h129l8 39q16 85 47 146.5t71 103.5t85 68t90 40t85.5 18.5t70.5 4.5q20 0 36.5 -1t28.5 -2q14 -2 25 -3l-37 -170q-5 1 -12 2q-6 1 -15 1.5t-20 0.5q-29 0 -68 -7t-76.5 -29.5t-68.5 -65.5t-45 -115l-6 -31h487l8 39q16 85 47 146.5t71 103.5 t85 68t90 40t85.5 18.5t70.5 4.5q20 0 36.5 -1t28.5 -2q14 -2 25 -3l-37 -170q-5 1 -12 2q-6 1 -15 1.5t-20 0.5q-29 0 -68 -7t-76.5 -29.5t-68.5 -65.5t-45 -115l-6 -31h630l-202 -1036h-199l170 874h-430l-170 -874h-199l170 874h-487l-170 -874h-199zM1647 1243l39 203 h204l-41 -203h-202z" />
<glyph unicode="&#xfb04;" horiz-adv-x="1913" d="M92 0l170 874h-129l31 162h129l8 39q16 85 47 146.5t71 103.5t85 68t90 40t85.5 18.5t70.5 4.5q20 0 36.5 -1t28.5 -2q14 -2 25 -3l-37 -170q-5 1 -12 2q-6 1 -15 1.5t-20 0.5q-29 0 -68 -7t-76.5 -29.5t-68.5 -65.5t-45 -115l-6 -31h487l8 39q16 85 47 146.5t71 103.5 t85 68t90 40t85.5 18.5t70.5 4.5q20 0 36.5 -1t28.5 -2q14 -2 25 -3l-37 -170q-5 1 -12 2q-6 1 -15 1.5t-20 0.5q-29 0 -68 -7t-76.5 -29.5t-68.5 -65.5t-45 -115l-6 -31h243l-30 -162h-244l-170 -874h-199l170 874h-487l-170 -874h-199zM1444 209q0 18 2.5 40.5t7.5 47.5 l223 1149h199l-215 -1114q-5 -22 -7.5 -41.5t-2.5 -36.5q0 -29 8.5 -45.5t21.5 -25t29.5 -11t32.5 -2.5h12.5t10.5 1q5 0 10 1l-37 -176q-8 -1 -18 -2q-8 -1 -19.5 -1.5t-22.5 -0.5q-41 0 -82.5 9t-75.5 33.5t-55.5 66.5t-21.5 108z" />
<glyph horiz-adv-x="0" />
<glyph unicode="&#xd;" horiz-adv-x="526" />
<glyph unicode=" "  horiz-adv-x="526" />
<glyph unicode="&#x09;" horiz-adv-x="526" />
<glyph unicode="&#xa0;" horiz-adv-x="526" />
<glyph unicode="!" horiz-adv-x="643" d="M100 0l41 201h205l-39 -201h-207zM190 397l191 1049h207l-219 -1049h-179z" />
<glyph unicode="&#x22;" horiz-adv-x="694" d="M217 1085l74 385h155l-73 -385h-156zM504 1085l76 385h155l-76 -385h-155z" />
<glyph unicode="#" horiz-adv-x="1462" d="M43 391l53 152h264l129 344h-262l56 149h260l151 410h170l-151 -410h319l152 410h170l-152 -410h262l-55 -149h-262l-129 -344h262l-55 -152h-262l-144 -391h-170l144 391h-318l-143 -391h-170l143 391h-262zM530 543h318l129 344h-318z" />
<glyph unicode="$" horiz-adv-x="1159" d="M27 166l129 143q38 -41 90 -73q45 -27 109.5 -49.5t150.5 -22.5q53 0 106 16.5t95.5 48.5t69 78.5t26.5 106.5q0 48 -25 84t-66 66.5t-93.5 57t-107.5 55t-107.5 61.5t-93.5 75.5t-66 97.5t-25 127q0 85 36.5 160t100 132t148 93.5t180.5 44.5l37 189h143l-37 -193 q83 -10 143 -33t100 -47q47 -28 79 -61l-115 -149q-35 30 -81 54q-39 20 -95 37t-127 17q-64 0 -120 -20.5t-97.5 -54.5t-65.5 -78t-24 -91q0 -44 25 -78t66 -62.5t93.5 -54.5t107.5 -54.5t107.5 -62.5t93.5 -78.5t66 -101.5t25 -132q0 -85 -35.5 -161.5t-98 -136 t-148.5 -96.5t-187 -43l-37 -186h-144l35 193q-94 13 -163 43t-114 61q-53 36 -89 78z" />
<glyph unicode="%" horiz-adv-x="1571" d="M25 0l1366 1446h202l-1366 -1446h-202zM199 1133q0 64 29.5 125t79 108t114 75.5t133.5 28.5q62 0 113 -20t87 -56t56 -85.5t20 -108.5q0 -66 -30.5 -127t-80 -107.5t-114 -74t-131.5 -27.5q-62 0 -113 19.5t-87 55t-56 85t-20 109.5zM360 1137q0 -53 34.5 -87t94.5 -34 q36 0 68.5 14.5t57.5 39t40 57t15 69.5q0 54 -35.5 89.5t-93.5 35.5q-35 0 -67.5 -15t-57.5 -40.5t-40.5 -58.5t-15.5 -70zM784 244q0 64 29.5 125t79 108.5t113.5 76t133 28.5q62 0 113 -20t87 -56t56 -86t20 -109q0 -66 -30 -127t-79.5 -107.5t-113.5 -74t-131 -27.5 q-63 0 -114 19.5t-87.5 55t-56 85t-19.5 109.5zM944 248q0 -53 35.5 -87t95.5 -34q34 0 66.5 14.5t58 39t40.5 57t15 69.5q0 54 -35 89.5t-94 35.5q-35 0 -67.5 -15.5t-58 -41t-41 -58.5t-15.5 -69z" />
<glyph unicode="&#x26;" horiz-adv-x="1395" d="M63 356q0 69 25 135.5t70 123.5t107.5 99.5t137.5 63.5v4q-40 17 -71 50q-26 28 -48 76t-22 122q0 105 41.5 186.5t111 138t160.5 86t191 29.5q37 0 71.5 -4.5t60.5 -9.5q31 -6 58 -14l-79 -156q-17 3 -35 6q-16 2 -35 4t-37 2q-59 0 -113.5 -18.5t-97.5 -53t-68.5 -85.5 t-25.5 -115q0 -32 9.5 -63t34.5 -56.5t69 -41t114 -15.5h269l38 197h199l-37 -197h191l-35 -176h-191l-39 -193q-26 -131 -76.5 -226t-122.5 -157.5t-164 -92.5t-202 -30q-109 0 -194.5 28t-144 78.5t-89.5 120.5t-31 154zM276 369q0 -45 16.5 -82.5t48.5 -65.5t78.5 -43.5 t106.5 -15.5q70 0 129.5 19t106 59t79.5 102t50 147l37 185h-277q-71 0 -138 -18.5t-120 -56t-85 -95t-32 -135.5z" />
<glyph unicode="'" horiz-adv-x="410" d="M217 1085l74 385h160l-76 -385h-158z" />
<glyph unicode="(" horiz-adv-x="612" d="M131 354q0 324 104.5 611.5t319.5 539.5h180q-210 -263 -318 -550.5t-108 -604.5q0 -284 94 -545h-165q-48 121 -77.5 259.5t-29.5 289.5z" />
<glyph unicode=")" horiz-adv-x="614" d="M-109 -195q211 265 318.5 553t107.5 603q0 142 -23 277.5t-71 266.5h166q48 -118 77.5 -257t29.5 -292q0 -323 -105 -610.5t-319 -540.5h-181z" />
<glyph unicode="*" horiz-adv-x="948" d="M160 1090l88 167l252 -102l41 291h186l-74 -291l295 102l25 -174l-301 -79l-2 -5l135 -221l-156 -106l-117 243h-4l-204 -241l-134 108l228 230v4z" />
<glyph unicode="+" horiz-adv-x="1376" d="M127 504l31 160h456l101 503h168l-101 -503h457l-29 -160h-456l-99 -504h-168l99 504h-459z" />
<glyph unicode="," horiz-adv-x="528" d="M-100 -207l209 422h210l-258 -422h-161z" />
<glyph unicode="-" horiz-adv-x="956" d="M156 496l32 176h598l-32 -176h-598z" />
<glyph unicode="." horiz-adv-x="512" d="M35 0l41 215h213l-41 -215h-213z" />
<glyph unicode="/" horiz-adv-x="825" d="M-68 -86l832 1610h188l-833 -1610h-187z" />
<glyph unicode="0" horiz-adv-x="1288" d="M123 453q0 69 8 149.5t25.5 165.5t44.5 169.5t65.5 162.5t89 145.5t114 117.5t141 78.5t169.5 28.5q119 0 201 -34.5t132.5 -97.5t72.5 -151t22 -194q0 -69 -8 -150t-25 -165.5t-44 -169.5t-65.5 -163t-89 -145.5t-114.5 -117.5t-142 -78.5t-171 -28.5q-117 0 -198 35 t-131.5 98t-73.5 151t-23 194zM332 457q0 -66 12 -120.5t39 -93t69.5 -60t104.5 -21.5q81 0 145 41t113 108.5t83.5 154t56.5 178t32 180.5t10 161q0 67 -11.5 122.5t-38 94.5t-69 60.5t-104.5 21.5q-78 0 -141 -39t-112 -104.5t-84.5 -151t-59 -177.5t-34.5 -184t-11 -171z " />
<glyph unicode="1" horiz-adv-x="995" d="M2 0l31 176h319l180 918q3 17 6.5 33t6.5 28q4 14 6 27h-4q-8 -10 -19 -23q-10 -11 -26 -26.5t-39 -34.5l-158 -129l-106 139l417 338h183l-248 -1270h313l-33 -176h-829z" />
<glyph unicode="2" horiz-adv-x="1171" d="M10 0q1 119 41 212t103.5 168.5t144.5 136t165.5 114t165 103.5t143.5 103t101.5 114t38.5 136q0 45 -15.5 80.5t-44 60.5t-68.5 38.5t-89 13.5q-37 0 -70.5 -8t-64 -21t-56.5 -29.5t-48 -33.5q-51 -40 -92 -92l-144 112q59 73 135 131q32 24 71.5 47.5t85 42t97.5 30 t109 11.5q91 0 167 -25.5t130 -72.5t84 -114t30 -150q0 -94 -34 -170t-90.5 -140t-129 -117.5t-150 -102t-154 -94.5t-139.5 -93.5t-108 -100t-59 -114.5h707l-33 -176h-930z" />
<glyph unicode="3" horiz-adv-x="1159" d="M-8 172l127 141q34 -41 82 -73q42 -27 104.5 -49.5t149.5 -22.5q67 0 130.5 24t112 66.5t78 100t29.5 124.5q0 55 -22.5 96t-62.5 67t-93.5 39t-114.5 13h-104l-25 109l379 371q21 20 40.5 37.5t34.5 30.5q18 15 33 26v4q-13 -2 -31 -3q-32 -3 -91 -3h-478l35 176h864 l-26 -129l-477 -459q52 -5 112.5 -26.5t112.5 -65t86.5 -110.5t34.5 -164q0 -67 -19 -131.5t-54 -122t-84.5 -106t-111 -83.5t-133.5 -54.5t-151 -19.5q-61 0 -113.5 8.5t-97 22t-81 31.5t-64.5 36q-67 43 -111 99z" />
<glyph unicode="4" horiz-adv-x="1243" d="M20 387l25 127l832 932h249l-174 -887h197l-33 -172h-196l-76 -387h-199l74 387h-699zM295 559h459l102 526q5 26 11 51t11 46q6 24 13 47h-4q-13 -20 -29 -40q-14 -17 -31 -38t-34 -41l-498 -549v-2z" />
<glyph unicode="5" horiz-adv-x="1159" d="M16 176l131 137q29 -41 73 -73q38 -27 94.5 -49.5t136.5 -22.5q68 0 135 26t120 72.5t86 110.5t33 141q0 54 -20 98t-56.5 75.5t-88 49t-113.5 17.5q-55 0 -102 -11t-82 -25q-40 -16 -74 -36l-115 45l213 715h735l-35 -176h-555l-92 -301q-5 -17 -9.5 -30t-7.5 -24 q-4 -12 -7 -22h4q24 11 54 20q25 8 59 14.5t73 6.5q95 0 174 -30.5t136 -84.5t88.5 -128.5t31.5 -162.5q0 -78 -22 -149t-61.5 -132.5t-94 -111.5t-119 -85.5t-137.5 -55t-149 -19.5q-60 0 -111 8.5t-93 22.5t-75.5 32t-59.5 37q-61 44 -98 101z" />
<glyph unicode="6" horiz-adv-x="1229" d="M113 504q0 92 23.5 199.5t69 214.5t113 207t156 176.5t198 122.5t238.5 46q71 0 125.5 -10t92.5 -21q44 -13 77 -30l-92 -166q-25 11 -57 20q-27 8 -64 14.5t-80 6.5q-100 0 -184 -42t-151.5 -110.5t-116.5 -155.5t-78 -177h4q28 31 66 56.5t80.5 43.5t88 27.5t89.5 9.5 q94 0 167.5 -29.5t124 -82t77 -125.5t26.5 -160q0 -67 -17 -135t-49 -130.5t-78 -117t-105 -95t-130 -63.5t-152 -23q-104 0 -189.5 36.5t-146 105t-93.5 166.5t-33 221zM317 485q0 -62 17.5 -120.5t50.5 -103.5t80.5 -72t107.5 -27q71 0 131.5 29.5t104.5 80t69 117.5 t25 143q0 52 -16 94.5t-47.5 73t-77.5 47.5t-107 17q-56 0 -115.5 -20.5t-109 -57.5t-81.5 -88.5t-32 -112.5z" />
<glyph unicode="7" horiz-adv-x="1085" d="M39 0l784 1139q23 32 43 56.5t35 41.5q18 20 33 35v4q-11 -2 -26 -3q-26 -3 -79 -3h-632l34 176h967l-27 -139l-907 -1307h-225z" />
<glyph unicode="8" horiz-adv-x="1249" d="M76 369q0 62 20 117t51 101.5t68.5 85t72.5 67t62.5 46.5t38.5 25q-54 45 -88.5 102t-34.5 138q0 77 34 152t98.5 134.5t158 96t211.5 36.5q97 0 174.5 -23t131.5 -67t83 -107t29 -143q0 -52 -16 -101.5t-40.5 -94.5t-54 -84t-57.5 -70t-51 -52t-33 -30q33 -23 61 -49.5 t48.5 -58t32 -69.5t11.5 -83q0 -93 -42 -177t-116.5 -147.5t-175.5 -101t-218 -37.5q-104 0 -188.5 28t-144.5 79t-93 124t-33 163zM289 379q0 -51 19.5 -92t53.5 -69.5t79.5 -44t97.5 -15.5q62 0 123 19t109 55t78 87.5t30 116.5q0 50 -31 88.5t-81 71t-112 62t-123 61.5 q-25 -15 -66 -44.5t-80.5 -72.5t-68 -99.5t-28.5 -123.5zM471 1053q0 -53 29.5 -92t75 -70.5t101.5 -58t109 -52.5q17 15 49 46.5t64 75.5t56 98.5t24 115.5q0 81 -58.5 126.5t-160.5 45.5q-65 0 -118.5 -19t-91.5 -51t-58.5 -74.5t-20.5 -90.5z" />
<glyph unicode="9" horiz-adv-x="1231" d="M66 37l92 166q26 -12 58 -21q27 -8 64 -14t80 -6q100 0 184.5 42t151 110.5t115.5 155.5t78 177h-4q-22 -26 -56 -50.5t-76 -43t-90.5 -30t-99.5 -11.5q-95 0 -168.5 29t-123.5 81t-76.5 125t-26.5 160q0 68 17 136t49 130.5t78.5 116.5t106 94t130 63t151.5 23 q105 0 190 -36.5t145 -104.5t93 -166t33 -221q0 -92 -23.5 -199t-69.5 -214.5t-113.5 -207.5t-156.5 -177t-198 -123t-238 -46q-71 0 -126 9.5t-93 21.5q-45 13 -77 31zM369 913q0 -51 16 -93.5t47 -73t76.5 -47.5t105.5 -17q56 0 116.5 20.5t110 57.5t81.5 89t32 114 q0 61 -17 119t-50 103t-80.5 72t-108.5 27q-70 0 -130 -29.5t-104.5 -80t-69.5 -118t-25 -143.5z" />
<glyph unicode=":" horiz-adv-x="596" d="M72 0l41 215h215l-43 -215h-213zM231 821l43 215h213l-41 -215h-215z" />
<glyph unicode=";" horiz-adv-x="606" d="M-74 -207l209 422h211l-256 -422h-164zM252 821l41 215h209l-41 -215h-209z" />
<glyph unicode="&#x3c;" horiz-adv-x="1171" d="M59 516v135l955 426v-182l-733 -309v-4l733 -310v-182z" />
<glyph unicode="=" horiz-adv-x="1376" d="M190 309v160h977v-160h-977zM190 696v160h977v-160h-977z" />
<glyph unicode="&#x3e;" horiz-adv-x="1165" d="M141 90v182l731 310v4l-731 309v182l955 -426v-135z" />
<glyph unicode="?" horiz-adv-x="989" d="M168 0l41 201h205l-39 -201h-207zM199 1356q48 33 106 59q50 23 115.5 41.5t142.5 18.5q81 0 151 -22.5t121 -65t80 -103.5t29 -137q0 -91 -32.5 -159t-82 -122t-108.5 -98t-113 -87.5t-94.5 -91.5t-52.5 -108l-19 -84h-192l18 97q16 82 56.5 142.5t92.5 109.5t107.5 90 t102 83.5t76.5 91t30 111.5q0 36 -14 66.5t-39.5 52.5t-61.5 34.5t-81 12.5q-51 0 -96.5 -13.5t-79.5 -29.5q-40 -19 -74 -43z" />
<glyph unicode="@" horiz-adv-x="1659" d="M84 358q0 120 33.5 233t93.5 212t143 181.5t181.5 141.5t209 92t226.5 33q133 0 224.5 -27.5t147.5 -74.5t80.5 -111t24.5 -137q0 -22 -3.5 -54.5t-8.5 -55.5l-103 -535h146l-29 -150h-537q-90 0 -160 26t-118 71.5t-73 106.5t-25 132q0 82 36.5 160.5t101 139.5t153 98 t192.5 37h242q2 8 3 15.5t1 16.5q0 39 -19 71.5t-56 56t-92 37t-126 13.5q-93 0 -180 -28t-163.5 -77t-140.5 -116.5t-109.5 -147.5t-71 -169t-25.5 -180q0 -100 32.5 -185.5t94.5 -148t151 -98t203 -35.5l-31 -158q-142 0 -261 46t-205.5 128t-134.5 194.5t-48 245.5z M737 446q0 -41 14 -75.5t39.5 -60t62.5 -40t83 -14.5h205l94 483h-201q-61 0 -115 -24t-94.5 -64.5t-64 -93.5t-23.5 -111z" />
<glyph unicode="A" horiz-adv-x="1282" d="M-98 0l792 1446h226l235 -1446h-203l-63 416h-545l-225 -416h-217zM428 584h440l-71 458q-5 28 -8.5 63t-6.5 67q-4 37 -6 75h-4q-15 -38 -32 -75q-14 -32 -31 -67t-31 -63z" />
<glyph unicode="B" horiz-adv-x="1303" d="M78 0l282 1446h465q56 0 105.5 -5.5t91.5 -21.5q93 -34 144 -108.5t51 -180.5q0 -62 -17.5 -118.5t-50 -103.5t-77.5 -84t-99 -60v-4q85 -31 131.5 -106.5t46.5 -178.5q0 -81 -23 -150t-64 -124.5t-97 -97t-121 -66.5q-51 -20 -104 -28.5t-109 -8.5h-555zM315 176h326 q35 0 69.5 6.5t65.5 22.5q37 18 67.5 45t52.5 62.5t34 77.5t12 89q0 88 -54 139.5t-153 51.5h-323zM442 838h306q54 0 102 20.5t83.5 56.5t56 85.5t20.5 107.5q0 74 -45.5 118t-135.5 44h-301z" />
<glyph unicode="C" horiz-adv-x="1481" d="M111 602q0 119 32 229.5t89.5 207t137 176t174.5 136t202.5 88t220.5 31.5q68 0 126.5 -8.5t108 -22t90 -30.5t72.5 -35q75 -42 125 -96l-121 -139q-43 40 -102 72q-51 27 -124 50t-169 23q-92 0 -176 -25.5t-156.5 -70.5t-132 -107.5t-101.5 -137.5t-65 -159t-23 -172 q0 -96 29.5 -178.5t86 -142.5t138.5 -94.5t187 -34.5q51 0 98.5 8t90.5 21t81.5 29.5t71.5 34.5q76 40 139 93l88 -160q-72 -60 -162 -107q-38 -20 -84 -39t-99 -34t-111.5 -24t-122.5 -9q-149 0 -267.5 47t-201 130t-126.5 198t-44 252z" />
<glyph unicode="D" horiz-adv-x="1513" d="M80 0l280 1446h447q149 0 267.5 -37.5t201 -109.5t126.5 -177t44 -239q0 -122 -28.5 -234.5t-81 -210.5t-128.5 -178.5t-170.5 -138.5t-207 -89.5t-238.5 -31.5h-512zM315 176h263q145 0 266.5 53t209 146t136.5 219t49 272q0 98 -31 173.5t-88.5 126.5t-140.5 77.5 t-186 26.5h-265z" />
<glyph unicode="E" horiz-adv-x="1171" d="M78 0l284 1446h838l-35 -176h-637l-88 -453h518l-34 -176h-518l-91 -465h672l-33 -176h-876z" />
<glyph unicode="F" horiz-adv-x="1069" d="M78 0l282 1446h795l-35 -176h-594l-92 -475h504l-33 -177h-506l-120 -618h-201z" />
<glyph unicode="G" horiz-adv-x="1556" d="M111 590q0 119 31.5 230.5t89 209.5t137 179t176 139t206.5 90t228 32q66 0 123 -7.5t105.5 -19.5t89 -27.5t72.5 -31.5q76 -38 128 -86l-123 -141q-44 35 -102 63q-51 24 -123 44t-166 20q-95 0 -181 -26t-159.5 -72t-133 -110t-101 -140t-64 -161.5t-22.5 -174.5 q0 -101 32 -182t89.5 -138t136.5 -87.5t174 -30.5q48 0 92.5 8t85 21.5t76 30.5t65.5 35q70 41 129 95l39 199h-233l32 176h420l-141 -727h-176l16 90q2 11 5 22.5t5 20.5q3 11 5 19h-5q-52 -50 -121 -89q-59 -33 -141.5 -60.5t-187.5 -27.5q-128 0 -239 44t-193 124.5 t-129 194t-47 252.5z" />
<glyph unicode="H" horiz-adv-x="1546" d="M78 0l282 1446h201l-125 -637h752l125 637h200l-282 -1446h-201l123 635h-752l-122 -635h-201z" />
<glyph unicode="I" horiz-adv-x="596" d="M78 0l282 1446h201l-280 -1446h-203z" />
<glyph unicode="J" horiz-adv-x="1090" d="M10 317q0 25 2 50.5t8 56.5l13 63h200l-10 -59q-3 -20 -5.5 -41t-2.5 -41q0 -86 43.5 -135t138.5 -49q42 0 85 13.5t80.5 43.5t66.5 79t43 120l166 852h-363l35 176h563l-203 -1047q-22 -114 -70.5 -194.5t-113 -131.5t-140.5 -74.5t-153 -23.5q-75 0 -144 20t-122.5 62 t-85 106.5t-31.5 153.5z" />
<glyph unicode="K" horiz-adv-x="1276" d="M78 0l282 1446h201l-119 -608h207l492 608h235l-565 -694v-4l299 -748h-215l-258 664h-229l-129 -664h-201z" />
<glyph unicode="L" horiz-adv-x="1071" d="M78 0l282 1446h203l-248 -1270h648l-37 -176h-848z" />
<glyph unicode="M" horiz-adv-x="1772" d="M31 0l395 1446h211l180 -782q7 -30 13 -64.5t11 -63.5q5 -34 9 -67h4q18 33 37 67q16 29 35.5 63t38.5 65l485 782h217l-166 -1446h-198l108 911q4 33 10 70t12 69q7 37 15 74h-4q-20 -39 -41 -77q-18 -33 -39 -70t-39 -66l-414 -651h-182l-162 651q-7 29 -13.5 66.5 t-11.5 71.5q-6 39 -12 79h-4q-5 -38 -12 -76q-6 -32 -14 -70t-17 -71l-250 -911h-202z" />
<glyph unicode="N" horiz-adv-x="1536" d="M78 0l282 1446h187l463 -940q14 -29 27.5 -65t24.5 -68q13 -38 25 -76h5q3 37 7 74q3 32 8 68.5t11 66.5l182 940h203l-282 -1446h-187l-463 938q-15 30 -29 66.5t-25 68.5q-13 38 -25 76h-5q-3 -38 -7 -75q-4 -32 -8.5 -68.5t-10.5 -67.5l-182 -938h-201z" />
<glyph unicode="O" horiz-adv-x="1677" d="M109 606q0 117 33 226.5t92.5 205.5t140.5 175.5t176.5 136.5t202.5 88.5t217 31.5q145 0 264 -45.5t203.5 -127t131 -194.5t46.5 -247q0 -119 -33.5 -231t-93.5 -209.5t-141.5 -178.5t-177.5 -139.5t-202.5 -90.5t-215.5 -32q-145 0 -263.5 47t-203 131t-130.5 200 t-46 253zM315 614q0 -100 32.5 -183t90.5 -143t138.5 -93t177.5 -33q81 0 160.5 24.5t152 69t135 107t108 138.5t71.5 163.5t26 181.5q0 97 -32 177.5t-90 138.5t-138.5 90t-177.5 32q-83 0 -163.5 -24t-153 -67.5t-134.5 -104.5t-107 -135.5t-70.5 -160t-25.5 -178.5z" />
<glyph unicode="P" horiz-adv-x="1245" d="M78 0l282 1446h496q66 0 122.5 -11t102.5 -36q87 -45 135 -128.5t48 -193.5q0 -87 -24 -164.5t-66 -142t-100 -113.5t-126 -79q-51 -22 -105 -32.5t-110 -10.5h-348l-104 -535h-203zM418 711h295q42 0 80.5 7.5t72.5 24.5q42 20 76.5 51.5t59.5 72t39 90t14 106.5 q0 99 -60.5 153t-173.5 54h-293z" />
<glyph unicode="Q" horiz-adv-x="1700" d="M109 606q0 117 33 226.5t92.5 205.5t140.5 175.5t176.5 136.5t202.5 88.5t217 31.5q144 0 262.5 -45.5t203 -127t131 -194.5t46.5 -247q0 -92 -19.5 -177.5t-55 -163t-84.5 -146t-109 -127.5l133 -160l-129 -119l-136 170q-100 -75 -215.5 -116.5t-246.5 -41.5 q-145 0 -263.5 47t-203 131t-130.5 200t-46 253zM315 614q0 -100 32 -183t90 -143t138.5 -93t178.5 -33q89 0 176.5 30t165.5 84l-140 170l129 119l138 -174q40 45 73.5 97t57.5 110t37.5 120.5t13.5 127.5q0 97 -32 177.5t-89.5 138.5t-137.5 90t-177 32q-83 0 -163.5 -24 t-153 -67.5t-134.5 -104.5t-107 -135.5t-70.5 -160t-25.5 -178.5z" />
<glyph unicode="R" horiz-adv-x="1307" d="M78 0l282 1446h492q59 0 110 -8.5t95 -28.5q86 -40 135 -118.5t49 -184.5q0 -80 -24 -156t-69 -139.5t-109.5 -111t-145.5 -70.5v-4q3 -6 7 -16q4 -8 8.5 -20.5t11.5 -29.5l200 -559h-215l-198 575h-316l-110 -575h-203zM426 752h285q66 0 124.5 23t102 65.5t69 102.5 t25.5 134q0 91 -56.5 142t-158.5 51h-291z" />
<glyph unicode="S" horiz-adv-x="1120" d="M6 166l127 143q38 -41 91 -73q45 -27 110 -49.5t151 -22.5q53 0 106 16.5t95 48.5t68 78.5t26 106.5q0 48 -25 84t-66 66.5t-93 57t-106.5 55t-106.5 61.5t-93 75.5t-66 97.5t-25 127q0 91 41 169.5t111 137t163.5 92t198.5 33.5q107 0 185 -23t129 -51q60 -33 101 -73 l-114 -149q-35 30 -81 54q-39 20 -95 37t-127 17q-64 0 -120.5 -20.5t-98.5 -54.5t-66.5 -78t-24.5 -91q0 -44 25 -78t66.5 -62.5t94 -54.5t107.5 -54.5t107.5 -62.5t94 -78.5t66.5 -101.5t25 -132q0 -88 -38 -167.5t-105.5 -140t-160.5 -96t-202 -35.5q-61 0 -113.5 8 t-97.5 21.5t-82 30.5t-66 35q-69 42 -116 96z" />
<glyph unicode="T" horiz-adv-x="1206" d="M131 1270l33 176h1194l-33 -176h-498l-245 -1270h-203l248 1270h-496z" />
<glyph unicode="U" horiz-adv-x="1489" d="M147 403q0 28 3.5 57t9.5 60l180 926h201l-181 -932q-5 -22 -6.5 -43t-1.5 -43q0 -128 80 -197t225 -69q84 0 156.5 24t129 69.5t95 112t54.5 150.5l182 928h201l-185 -944q-24 -121 -80 -218.5t-138.5 -166t-188.5 -105.5t-230 -37q-110 0 -202.5 28.5t-160 83.5 t-105.5 134.5t-38 181.5z" />
<glyph unicode="V" horiz-adv-x="1290" d="M166 1446h211l160 -1022q5 -29 7.5 -64t4.5 -65l4 -70h4l32 70q14 30 30 65t32 64l559 1022h228l-809 -1446h-217z" />
<glyph unicode="W" horiz-adv-x="1952" d="M225 1446h207l53 -1061q2 -29 1.5 -56.5t-0.5 -49.5q-1 -26 -1 -48h4q8 21 18 47q8 21 20 49t26 58l500 1061h184l63 -1061q2 -27 2 -54.5v-49.5q-1 -26 -2 -50h5q7 22 17 48q8 22 18.5 49.5t23.5 56.5l461 1061h221l-651 -1446h-238l-63 938q-4 34 -4 70v23q0 23 1 43 q1 35 3 69h-4q-13 -33 -27 -67q-12 -29 -27.5 -65t-31.5 -71l-449 -940h-233z" />
<glyph unicode="X" horiz-adv-x="1239" d="M-74 0l598 754l-291 692h220l153 -385q11 -29 22.5 -59.5t20.5 -55.5q11 -29 19 -57h4q16 26 35 54q17 24 38.5 54t45.5 60l303 389h239l-571 -709l317 -737h-215l-182 438q-13 31 -23.5 61t-18.5 53q-10 27 -17 52h-5q-17 -25 -35 -51q-16 -23 -37 -52t-44 -59 l-346 -442h-230z" />
<glyph unicode="Y" horiz-adv-x="1186" d="M164 1446h217l174 -475q11 -30 20 -62.5t17 -59.5q9 -32 16 -61h4q19 29 39 60q17 26 39 58t45 63l355 477h243l-651 -840l-119 -606h-201l121 612z" />
<glyph unicode="Z" horiz-adv-x="1233" d="M-37 0l27 135l874 1004q27 31 50.5 55.5t41.5 41.5q21 20 39 36v4q-11 -2 -27 -3q-27 -3 -79 -3h-643l35 176h1013l-26 -133l-877 -1006q-27 -31 -51 -55t-42 -41q-21 -20 -38 -35v-4q11 1 27 2q14 1 34 1.5t46 0.5h686l-33 -176h-1057z" />
<glyph unicode="[" horiz-adv-x="612" d="M43 -195l332 1700h340l-31 -149h-166l-270 -1399h166l-31 -152h-340z" />
<glyph unicode="\" horiz-adv-x="807" d="M229 1524h168l207 -1610h-168z" />
<glyph unicode="]" horiz-adv-x="602" d="M-94 -195l31 152h163l271 1399h-164l29 149h339l-329 -1700h-340z" />
<glyph unicode="^" horiz-adv-x="1255" d="M23 506l409 940h129l408 -940h-178l-295 721l-293 -721h-180z" />
<glyph unicode="_" horiz-adv-x="1204" d="M-96 -160l28 160h1102l-30 -160h-1100z" />
<glyph unicode="`" horiz-adv-x="1022" d="M248 1806h205l96 -260h-158z" />
<glyph unicode="a" d="M0 238q0 84 31.5 146.5t85 108t123.5 75.5t146.5 47.5t155 24.5t148.5 7h51q7 31 8 50.5t1 33.5q0 36 -9.5 66t-31.5 51t-58 33t-88 12q-60 0 -116 -15.5t-99 -33.5q-50 -22 -94 -49l-53 157q51 30 113 54q53 20 124 37.5t154 17.5q75 0 140.5 -16.5t114 -53.5t77 -95 t28.5 -142q0 -25 -3 -55.5t-9 -59.5l-125 -639h-184l20 104q6 36 13.5 59t9.5 23h-4l-10 -16q-10 -15 -30.5 -38.5t-51 -51t-70.5 -51t-90 -39t-109 -15.5q-62 0 -117.5 17.5t-98.5 51t-68 82.5t-25 112zM203 270q0 -27 10 -51t30 -43t51.5 -30t74.5 -11q62 0 118 29.5 t100.5 76.5t76 105.5t45.5 116.5l8 35h-51q-37 0 -85 -2t-99.5 -10t-101.5 -23t-89.5 -40t-63.5 -62.5t-24 -90.5z" />
<glyph unicode="b" horiz-adv-x="1227" d="M35 0l280 1446h199l-90 -469q-4 -19 -8.5 -35.5t-8.5 -29.5q-5 -15 -10 -29h4q28 39 66 71.5t82.5 56.5t94.5 37t101 13q93 0 165.5 -30t122.5 -85.5t76 -134.5t26 -176q0 -98 -22 -185t-61 -160t-92.5 -131.5t-116.5 -99.5t-133.5 -62.5t-142.5 -21.5q-52 0 -100.5 12 t-90 35.5t-73.5 59t-51 82.5h-4q0 -12 -1 -25q-1 -11 -2.5 -26.5t-4.5 -32.5l-17 -80h-188zM317 410q0 -54 13.5 -102t42 -83.5t72 -56.5t104.5 -21q67 0 135 32.5t123 93.5t90 149t35 199q0 62 -16 111t-46 83.5t-73.5 53t-98.5 18.5q-81 0 -150.5 -40t-120.5 -106 t-80.5 -152t-29.5 -179z" />
<glyph unicode="c" horiz-adv-x="1118" d="M53 426q0 88 23.5 169.5t66 152t101.5 128t130 99t152 64t166 22.5q102 0 176 -23.5t122 -51.5q56 -33 93 -75l-110 -129q-31 29 -71 53q-35 20 -85 37t-115 17q-87 0 -168 -35t-142.5 -96t-98.5 -142.5t-37 -175.5q0 -65 21.5 -118.5t61 -92.5t95.5 -60.5t125 -21.5 q72 0 135 22t111 48q55 31 102 70l56 -158q-51 -44 -116 -77q-56 -29 -133 -53t-173 -24q-112 0 -202.5 33t-154 92.5t-97.5 142.5t-34 183z" />
<glyph unicode="d" horiz-adv-x="1229" d="M55 399q0 148 47.5 270t127 209t183.5 135t216 48q48 0 94 -10.5t86.5 -32t72.5 -54t50 -77.5h4q0 12 1 24q1 11 2.5 24.5t4.5 27.5l94 483h199l-281 -1446h-190l20 98q2 15 5.5 28.5t6.5 24.5q4 12 7 23h-4q-26 -40 -62.5 -76t-82 -63.5t-98.5 -43.5t-112 -16 q-93 0 -166 30t-123 85.5t-76 133.5t-26 175zM258 414q0 -62 16.5 -111.5t47 -84t74 -53t98.5 -18.5q81 0 150.5 41t120 108.5t79 153.5t28.5 175q0 54 -13.5 101.5t-41.5 83t-71.5 56.5t-104.5 21q-67 0 -135 -32t-123 -93t-90 -149t-35 -199z" />
<glyph unicode="e" horiz-adv-x="1128" d="M55 418q0 129 45 245.5t125.5 205t190.5 140.5t241 52q101 0 175.5 -28.5t123.5 -79.5t73 -121t24 -154q0 -32 -5.5 -65t-11.5 -61q-7 -33 -16 -63h-756q-6 -30 -6 -61q0 -58 18.5 -109t55.5 -89.5t92.5 -60.5t128.5 -22q67 0 127 18.5t105 41.5q53 26 98 61l57 -157 q-52 -38 -114 -68q-54 -26 -125.5 -47t-155.5 -21q-114 0 -204.5 33t-154 92t-97.5 140t-34 178zM297 639h553q1 6 2 15q1 8 1.5 18t0.5 22q0 52 -15 91.5t-41.5 65.5t-63.5 39t-81 13q-57 0 -110.5 -18t-100.5 -52.5t-84 -83.5t-61 -110z" />
<glyph unicode="f" horiz-adv-x="686" d="M92 0l168 864h-129l31 162h129l10 49q16 85 47 146.5t71 103.5t85 68t90 40t85.5 18.5t70.5 4.5q20 0 36.5 -1t28.5 -2q14 -2 25 -3l-37 -170q-5 1 -12 2q-6 1 -15 1.5t-20 0.5q-29 0 -68 -7t-76.5 -29.5t-68.5 -65.5t-45 -115l-9 -41h244l-31 -162h-243l-168 -864h-199z " />
<glyph unicode="g" horiz-adv-x="1210" d="M-2 -338l86 148q34 -19 77 -34q37 -13 87 -23.5t112 -10.5q67 0 129.5 16t113.5 51t88 90.5t52 133.5l17 76q5 25 11 47q4 12 7 24h-2q-59 -80 -136 -124t-183 -44q-95 0 -169 31t-124.5 86.5t-76.5 133t-26 169.5q0 72 16 147t47.5 144.5t78 131t107.5 107.5t135.5 72.5 t162.5 26.5q48 0 96 -8t90.5 -27t76 -50.5t53.5 -78.5h4q-1 7 0 14q0 6 1 13.5t3 15.5l18 96h189l-195 -1007q-25 -128 -83.5 -216t-136.5 -142t-169.5 -77.5t-183.5 -23.5q-72 0 -132 10t-106.5 24.5t-80 30t-54.5 27.5zM264 446q0 -60 15.5 -108t46 -82.5t76 -53 t104.5 -18.5q60 0 109.5 21t89 57.5t69 84.5t49 101.5t29.5 109.5t10 108q0 64 -18.5 106.5t-51 68.5t-75.5 37t-92 11q-87 0 -154.5 -38.5t-113 -100.5t-69.5 -142t-24 -162z" />
<glyph unicode="h" horiz-adv-x="1231" d="M35 0l280 1446h199l-102 -531q-5 -19 -9 -35t-7 -29q-4 -15 -7 -28h4q21 38 60.5 80t93.5 77t121 58t143 23q70 0 126 -16.5t96 -50t61.5 -85.5t21.5 -123q0 -29 -4 -62.5t-12 -68.5l-127 -655h-199l119 612q6 32 10 61.5t4 55.5q0 77 -41 113.5t-112 36.5 q-78 0 -148.5 -33t-127.5 -88.5t-97 -129.5t-55 -155l-93 -473h-198z" />
<glyph unicode="i" horiz-adv-x="508" d="M35 0l203 1036h198l-203 -1036h-198zM274 1243l39 203h205l-41 -203h-203z" />
<glyph unicode="j" horiz-adv-x="508" d="M-311 -418l32 170q6 -1 13 -1q6 -1 14 -1h19q28 0 67.5 7t79 30.5t72 68.5t47.5 121l205 1059h198l-209 -1069q-17 -87 -47.5 -149.5t-69.5 -106t-83 -69.5t-88 -40.5t-84.5 -19t-71.5 -4.5q-22 0 -39 0.5t-29 1.5q-14 1 -26 2zM274 1243l39 203h205l-39 -203h-205z" />
<glyph unicode="k" d="M35 0l282 1446h199l-156 -789h142l358 379h240l-443 -465v-4l269 -567h-215l-219 485h-164l-95 -485h-198z" />
<glyph unicode="l" horiz-adv-x="541" d="M72 209q0 18 2.5 40.5t7.5 47.5l223 1149h199l-215 -1114q-5 -22 -7.5 -41.5t-2.5 -36.5q0 -29 8.5 -45.5t21.5 -25t29.5 -11t32.5 -2.5h12.5t10.5 1q5 0 9 1l-36 -176q-8 -1 -18 -2q-8 -1 -19.5 -1.5t-22.5 -0.5q-41 0 -82.5 9t-75.5 33.5t-55.5 66.5t-21.5 108z" />
<glyph unicode="m" horiz-adv-x="1868" d="M37 0l201 1036h194l-26 -133q-4 -16 -8 -31t-8 -27q-4 -14 -9 -28h4q27 46 68 90t93 78t111.5 55t124.5 21q134 0 198 -61t75 -175h4q29 48 72 91t95.5 75.5t112.5 51t123 18.5q139 0 215 -68t76 -207q0 -31 -4 -66t-12 -73l-125 -647h-199l121 616q6 35 9 61.5t3 51.5 q0 34 -7 62t-24.5 48t-45.5 31t-70 11q-73 0 -136.5 -36t-113.5 -94t-84 -131t-49 -147l-92 -473h-197l119 616q6 35 9 63t3 54q0 31 -6.5 58.5t-23 47t-44 31t-69.5 11.5q-71 0 -135 -35t-115 -93t-86.5 -131.5t-50.5 -150.5l-92 -471h-199z" />
<glyph unicode="n" horiz-adv-x="1233" d="M37 0l201 1036h194l-22 -121q-5 -19 -9.5 -36t-9.5 -31q-5 -16 -10 -31h4q21 39 61 82t96 79t124.5 59.5t146.5 23.5q69 0 125 -16.5t95.5 -50t61 -85.5t21.5 -123q0 -29 -4 -62.5t-10 -68.5l-127 -655h-199l119 612q6 32 10 61.5t4 55.5q0 77 -41 113.5t-112 36.5 q-78 0 -149 -33t-128 -88.5t-97 -129.5t-56 -155l-90 -473h-199z" />
<glyph unicode="o" horiz-adv-x="1274" d="M53 432q0 89 25 170t69 151t104.5 127t132 97t150.5 62t160 22q108 0 198.5 -33t156 -92.5t101.5 -143t36 -184.5q0 -90 -25 -172t-69.5 -152t-105.5 -127.5t-132 -97.5t-149 -62t-158 -22q-109 0 -200 33.5t-156 94t-101.5 144.5t-36.5 185zM256 440q0 -65 21.5 -119 t60.5 -92.5t92.5 -60t118.5 -21.5q80 0 157.5 34.5t139 95t99.5 143t38 178.5q0 64 -21.5 118t-60 92t-92 59.5t-117.5 21.5q-82 0 -160.5 -34.5t-139.5 -95t-98.5 -142.5t-37.5 -177z" />
<glyph unicode="p" horiz-adv-x="1227" d="M-43 -410l281 1446h184l-16 -88q-4 -16 -7.5 -30.5t-7.5 -25.5l-8 -26h4q27 41 64 76.5t82.5 62t99.5 41.5t115 15q93 0 165 -30t122 -85.5t76 -134.5t26 -176q0 -98 -22 -185t-61 -160t-92 -131.5t-116 -99.5t-132.5 -62.5t-140.5 -21.5q-51 0 -98.5 11.5t-88 34 t-72 56.5t-50.5 79h-4q-1 -13 -3 -28l-4.5 -31.5t-6.5 -37.5l-90 -469h-199zM319 414q0 -55 14 -103.5t42.5 -85t72.5 -57.5t103 -21q67 0 135.5 32.5t123.5 93.5t89.5 149t34.5 199q0 62 -16 111t-46 83.5t-73.5 53t-98.5 18.5q-80 0 -149.5 -40t-121 -106t-81 -151.5 t-29.5 -175.5z" />
<glyph unicode="q" horiz-adv-x="1229" d="M55 397q0 148 48 270.5t127.5 210t183.5 135.5t215 48t191.5 -46t117.5 -134h4q0 9 2 20q1 10 3 22.5t5 28.5l15 84h190l-280 -1446h-199l90 473q7 40 17 69q4 15 10 28h-4q-22 -33 -55 -66t-76.5 -59.5t-97.5 -43t-118 -16.5q-93 0 -165 30t-122 85t-76 133t-26 174z M258 414q0 -62 16.5 -111.5t47 -84t74 -53t98.5 -18.5q81 0 150 41t119.5 108.5t79.5 153.5t29 175q0 54 -13.5 101.5t-41.5 83t-71.5 56.5t-104.5 21q-67 0 -135 -32t-123 -93t-90 -149t-35 -199z" />
<glyph unicode="r" horiz-adv-x="766" d="M37 0l201 1036h192l-37 -180q-3 -17 -6.5 -31.5t-6.5 -26.5q-4 -14 -7 -26h2q26 55 64.5 105.5t87 88.5t105 60.5t118.5 22.5q41 0 61 -5l-39 -196q-21 6 -55 6q-72 0 -138 -40.5t-121 -107.5t-94 -153t-57 -176l-71 -377h-199z" />
<glyph unicode="s" horiz-adv-x="909" d="M-23 125l109 131q31 -32 74 -57q37 -21 90 -38.5t123 -17.5q36 0 73 9.5t67.5 29t49.5 48.5t19 67q0 39 -33.5 66.5t-84.5 52t-109.5 50t-109.5 61.5t-84.5 87.5t-33.5 126.5q0 76 34.5 135.5t90.5 100.5t127 62.5t145 21.5q86 0 149 -18t105 -40q49 -26 84 -57l-98 -137 q-25 24 -60 42q-30 16 -75 29t-107 13q-34 0 -70.5 -8.5t-67 -26.5t-50 -46.5t-19.5 -68.5q0 -39 34 -66.5t84.5 -51.5t110 -50t110 -62.5t84.5 -88t34 -127.5q0 -72 -31.5 -131t-85.5 -101.5t-126.5 -66t-155.5 -23.5q-97 0 -170 23t-124 52q-59 33 -102 75z" />
<glyph unicode="t" horiz-adv-x="723" d="M111 864l30 162h140l59 295h192l-59 -295h250l-31 -162h-250l-86 -452q-5 -23 -6.5 -45t-1.5 -37q0 -53 16 -85t40.5 -49t54.5 -22.5t59 -5.5q13 0 24 0.5t19 1.5q10 1 17 2l-35 -176q-10 -1 -21 -2q-9 -1 -21 -1.5t-24 -0.5q-60 0 -119.5 12.5t-107.5 46.5t-77.5 93 t-29.5 151q0 48 13 104l90 465h-135z" />
<glyph unicode="u" horiz-adv-x="1221" d="M80 250q0 31 4 63.5t10 67.5l127 655h199l-119 -610q-12 -68 -12 -119q0 -34 7.5 -61t25.5 -46t48 -29.5t74 -10.5q78 0 146.5 34.5t123.5 91.5t92 130t52 149l92 471h199l-201 -1036h-194l24 121q4 18 8 35.5t9 31.5q4 16 10 31h-4q-22 -38 -61 -80.5t-92.5 -79 t-121 -60.5t-145.5 -24q-61 0 -115.5 14.5t-96 47.5t-65.5 85.5t-24 127.5z" />
<glyph unicode="v" horiz-adv-x="1010" d="M86 1036h197l112 -704q2 -17 4 -40.5t4 -46.5q2 -26 3 -55h4l21 49q9 21 20.5 46t23.5 47l387 704h213l-586 -1036h-219z" />
<glyph unicode="w" horiz-adv-x="1659" d="M115 1036h198l74 -731q2 -20 3 -39t1 -35v-36h4q7 18 15 36q7 16 16 35t18 39l365 729h184l80 -729q2 -17 2.5 -35.5t1.5 -35.5q1 -19 2 -39h4q6 17 14 35q6 16 14.5 35.5t18.5 39.5l361 731h213l-535 -1036h-219l-86 670q-2 20 -3 39.5t-2 35.5q-1 18 -1 35h-4 q-8 -17 -16 -35q-8 -16 -16.5 -35.5t-18.5 -39.5l-342 -670h-215z" />
<glyph unicode="x" horiz-adv-x="1032" d="M-76 0l465 539l-250 497h213l144 -309q5 -11 8.5 -22t6.5 -21q4 -11 7 -22h4q7 9 14 20q6 9 13.5 19.5t15.5 21.5l254 313h236l-439 -512l261 -524h-209l-160 340q-5 9 -9 20t-8 20q-4 11 -8 21h-4q-6 -9 -12 -19q-5 -8 -12 -18.5t-15 -19.5l-282 -344h-234z" />
<glyph unicode="y" horiz-adv-x="1042" d="M-188 -362l92 141q13 -11 30 -19q14 -7 35 -12.5t47 -5.5q66 0 121 39t99 110l75 123l-237 1022h207l139 -700q4 -20 7 -41.5t5 -39.5q3 -21 4 -42h2q9 20 19 40q8 17 19 38t22 41l389 704h223l-727 -1226q-72 -122 -165.5 -181t-192.5 -59q-48 0 -87 10.5t-67 23.5 q-33 15 -59 34z" />
<glyph unicode="z" horiz-adv-x="1047" d="M-41 0l21 115l641 655q20 20 38.5 38t32.5 31q17 15 31 27v4q-10 -1 -24 -2q-12 -1 -30.5 -1.5t-43.5 -0.5h-478l33 170h852l-20 -114l-643 -658q-20 -20 -39.5 -37t-33.5 -30q-18 -15 -32 -27v-4q10 1 25 2q13 1 31.5 1.5t44.5 0.5h516l-33 -170h-889z" />
<glyph unicode="{" horiz-adv-x="715" d="M90 578l35 176q50 8 93 34q37 22 72.5 67.5t51.5 125.5l37 184q16 81 43.5 138t62.5 95t74.5 60.5t78.5 33.5t75 14t65 3q19 0 31.5 -1t15.5 -1l-30 -151h-27q-18 0 -48.5 -5t-63.5 -26.5t-62.5 -64.5t-44.5 -119l-45 -226q-8 -38 -21 -69t-29.5 -55.5t-35.5 -43.5 t-37 -32q-43 -32 -94 -47v-4q34 -17 61 -46q23 -25 42.5 -65t19.5 -100q0 -28 -7 -60l-45 -223q-3 -15 -5.5 -35.5t-2.5 -36.5q0 -50 16.5 -78.5t39.5 -43t48 -18t42 -3.5h28l-30 -152q-6 -1 -14 -2q-7 -1 -16 -1.5t-20 -0.5q-17 0 -44 3.5t-57 13.5t-60 28t-54.5 48 t-39.5 72.5t-15 101.5q0 23 3 49.5t9 54.5l35 184q6 34 6 60q0 28 -6 50t-16 39t-22 29.5t-25 20.5q-30 19 -68 25z" />
<glyph unicode="|" horiz-adv-x="651" d="M244 -326v1948h174v-1948h-174z" />
<glyph unicode="}" horiz-adv-x="707" d="M-100 -197l28 152h27q19 0 50.5 5t64.5 26.5t62 64.5t44 119l47 244q7 39 20.5 71t30.5 57.5t36 44.5t37 33q43 33 93 48v4q-35 16 -61 44q-23 24 -41.5 63t-18.5 98q0 15 2 29.5t5 31.5l39 203q5 20 6.5 38t1.5 33q0 50 -17 79t-40 43.5t-48 18t-41 3.5h-26l28 151 q7 1 15 2q7 1 15.5 1.5t19.5 0.5q17 0 44 -3.5t57 -13t60.5 -28t55 -48t40 -72t15.5 -101.5q0 -23 -3.5 -49.5t-8.5 -54.5l-31 -164q-6 -35 -6 -59q0 -58 20.5 -90.5t46.5 -49.5q30 -19 68 -24l-33 -176q-50 -8 -94 -34q-19 -11 -38 -28t-36 -40.5t-30.5 -54.5t-20.5 -71 l-39 -205q-15 -81 -42.5 -138t-62.5 -95.5t-75 -61t-79.5 -34t-76 -14.5t-65.5 -3q-10 0 -18 0.5t-14 1.5q-7 1 -13 2z" />
<glyph unicode="~" horiz-adv-x="1210" d="M113 418q0 89 19.5 154t56.5 108t90 63.5t120 20.5q54 0 93 -15t70 -37t56 -48.5t50.5 -48.5t54.5 -37t68 -15q40 0 66.5 18t42.5 46t22 62.5t6 66.5h162q0 -90 -20 -155.5t-56.5 -107.5t-89.5 -62.5t-119 -20.5q-54 0 -93 14.5t-70 36.5t-56 48t-51 48t-55 36.5 t-68 14.5q-40 0 -66.5 -18t-42.5 -45.5t-22.5 -61.5t-6.5 -65h-161z" />
<glyph unicode="&#xa1;" horiz-adv-x="586" d="M-8 -410l219 1049h178l-190 -1049h-207zM231 836l41 200h207l-41 -200h-207z" />
<glyph unicode="&#xa2;" horiz-adv-x="1182" d="M117 602q0 87 19.5 170.5t55.5 159t86.5 139.5t113 112.5t134 79t150.5 37.5l33 170h145l-35 -178q52 -10 93.5 -28.5t73.5 -42t56 -50.5t41 -54q40 -62 56 -136l-181 -68q-11 56 -41 100q-13 19 -31 37t-42 32t-55 23t-70 9q-86 0 -159 -41t-126 -111t-82.5 -163 t-29.5 -197q0 -61 15 -110.5t46 -84.5t76.5 -54t107.5 -19q38 0 72 8.5t64 22.5t55 31.5t45 36.5q48 43 82 99l176 -73q-49 -81 -118 -148q-29 -29 -65.5 -56.5t-80 -50.5t-94 -39t-107.5 -20l-33 -172h-145l35 181q-75 15 -137 52t-106.5 94t-68.5 133t-24 169z" />
<glyph unicode="&#xa3;" horiz-adv-x="1194" d="M-6 0l35 176h121l92 477h-90l28 144h90l58 293q15 81 59 150.5t108.5 120.5t147 80t174.5 29q83 0 146.5 -22t106.5 -48q50 -31 87 -69l-133 -127q-24 23 -56 41q-27 15 -66.5 28t-88.5 13q-57 0 -105 -17t-85.5 -47t-61.5 -70t-33 -85l-53 -270h379l-29 -144h-379 l-92 -477h668l-35 -176h-993z" />
<glyph unicode="&#xa5;" horiz-adv-x="1239" d="M139 408l25 129h334l16 75l-37 99h-278l24 129h211l-221 606h221l154 -451q12 -35 22 -72.5l18 -67.5q9 -36 15 -69h4q17 33 37 68q17 30 39.5 67t48.5 72l328 453h241l-456 -606h209l-27 -129h-276l-72 -99l-17 -75h332l-24 -129h-332l-80 -408h-205l80 408h-334z" />
<glyph unicode="&#xa7;" horiz-adv-x="895" d="M-23 -16l109 120q21 -18 49 -32q24 -12 58.5 -21.5t78.5 -9.5q64 0 112.5 22t81.5 60t50.5 90.5t18.5 114.5l14 788h162l-15 -797q-2 -88 -30 -169t-81.5 -142.5t-132.5 -98t-182 -36.5q-70 0 -124 17t-92 38q-44 25 -77 56zM207 227l14 799q1 88 29 168t82 141.5 t132.5 98t182.5 36.5q70 0 124.5 -17.5t92.5 -37.5q44 -25 76 -55l-109 -119q-21 18 -49 32q-24 12 -58 22t-77 10q-65 0 -114 -22t-82 -61t-50 -92t-18 -114l-14 -789h-162z" />
<glyph unicode="&#xa8;" horiz-adv-x="1022" d="M131 1599l41 207h164l-41 -207h-164zM475 1599l39 207h164l-41 -207h-162z" />
<glyph unicode="&#xa9;" horiz-adv-x="1698" d="M137 723q0 104 26 200t73 179t113.5 150.5t147 116t173.5 75t194 26.5q102 0 196 -26.5t175.5 -75t148 -116t114 -150.5t73.5 -179t26 -200q0 -156 -57 -292.5t-156.5 -237.5t-233 -159.5t-286.5 -58.5q-101 0 -194 26.5t-173.5 75t-147 116.5t-113.5 151t-73 179 t-26 200zM287 723q0 -128 44.5 -239t122 -193t183 -129t227.5 -47q124 0 230.5 47t185 129t123.5 193t45 239t-45 239t-123.5 193t-185 129t-230.5 47q-122 0 -227.5 -47t-183 -129t-122 -193t-44.5 -239zM475 721q0 81 28 155t80.5 130.5t127.5 90t168 33.5q44 0 81.5 -9 t69.5 -23t58 -32t46 -37q48 -45 78 -101l-125 -68q-21 36 -51 64q-26 24 -63.5 44.5t-87.5 20.5q-61 0 -108 -22t-79.5 -59t-49.5 -85.5t-17 -101.5q0 -55 16.5 -103.5t48.5 -85t79.5 -58t109.5 -21.5q51 0 88.5 20t63.5 44q30 28 50 65l125 -68q-30 -57 -78 -102 q-20 -19 -46 -37t-58 -32.5t-69.5 -23t-81.5 -8.5q-93 0 -168 33.5t-127.5 90t-80.5 131t-28 155.5z" />
<glyph unicode="&#xaa;" horiz-adv-x="856" d="M131 543l23 116h563l-25 -116h-561zM213 956q0 60 24 102.5t62 70t85.5 43t94 23.5t87.5 9.5t67 1.5h35q6 34 6 51q0 44 -28 67.5t-81 23.5q-34 0 -67 -8.5t-59 -19.5q-31 -12 -58 -28l-41 105q32 19 72 34q34 13 81.5 24t104.5 11q223 0 223 -198q0 -16 -2.5 -40.5 t-7.5 -45.5l-76 -385h-139l18 94h-4q-22 -31 -53 -55q-26 -20 -64.5 -37t-89.5 -17q-35 0 -69 11t-61 32.5t-43.5 54t-16.5 76.5zM367 973q0 -29 21.5 -49.5t66.5 -20.5q35 0 67 18.5t57 46t42 59t22 56.5l4 19h-24q-20 0 -46.5 -1t-55 -5.5t-56.5 -12.5t-49.5 -22.5 t-35 -36t-13.5 -51.5z" />
<glyph unicode="&#xab;" horiz-adv-x="1135" d="M76 582l391 417h209l-410 -430l262 -411h-188zM483 582l424 417h213l-446 -430l262 -411h-188z" />
<glyph unicode="&#xac;" horiz-adv-x="1290" d="M143 696v160h977v-547h-166v387h-811z" />
<glyph unicode="&#xad;" horiz-adv-x="883" d="M6 496l33 176h598l-33 -176h-598z" />
<glyph unicode="&#xae;" horiz-adv-x="1698" d="M137 723q0 104 26 200t73 179t113.5 150.5t147 116t173.5 75t194 26.5q102 0 196 -26.5t175.5 -75t148 -116t114 -150.5t73.5 -179t26 -200q0 -156 -57 -292.5t-156.5 -237.5t-233 -159.5t-286.5 -58.5q-101 0 -194 26.5t-173.5 75t-147 116.5t-113.5 151t-73 179 t-26 200zM287 723q0 -128 44.5 -239t122 -193t183 -129t227.5 -47q124 0 230.5 47t185 129t123.5 193t45 239t-45 239t-123.5 193t-185 129t-230.5 47q-122 0 -227.5 -47t-183 -129t-122 -193t-44.5 -239zM614 340v772h297q55 0 100 -16.5t77 -47.5t49.5 -74t17.5 -97 q0 -45 -13 -80t-33.5 -61t-45.5 -42t-49 -22v-4l6 -9q3 -5 8 -13t12 -21l148 -285h-160l-143 299h-125v-299h-146zM760 745h123q57 0 91 35t34 97q0 60 -34 92t-91 32h-123v-256z" />
<glyph unicode="&#xaf;" horiz-adv-x="1022" d="M131 1606l27 143h520l-27 -143h-520z" />
<glyph unicode="&#xb0;" horiz-adv-x="793" d="M186 1130q0 67 29.5 128.5t78.5 108.5t112 75t129 28q62 0 113.5 -20t88.5 -56t57.5 -84.5t20.5 -105.5q0 -68 -30 -130t-79.5 -108.5t-112 -74t-126.5 -27.5q-62 0 -114 20t-89 55.5t-57.5 84.5t-20.5 106zM346 1139q0 -54 34.5 -88.5t94.5 -34.5q34 0 66.5 14.5 t58 38.5t40.5 56.5t15 68.5q0 56 -35 91.5t-94 35.5q-35 0 -67.5 -15t-57.5 -40t-40 -58t-15 -69z" />
<glyph unicode="&#xb1;" horiz-adv-x="1434" d="M145 504v160h459v503h168v-503h457v-160h-457v-504h-168v504h-459zM178 -195h1018v-159h-1018v159z" />
<glyph unicode="&#xb2;" horiz-adv-x="797" d="M-8 866q1 80 26 141.5t64 109.5t89 85t101.5 68.5t101 60t88 58.5t62 65t23.5 80q0 46 -33.5 76t-89.5 30q-38 0 -73.5 -15.5t-61.5 -33.5q-32 -22 -58 -49l-90 100q37 39 83 70q39 26 93 48t117 22q59 0 109 -16.5t86.5 -47t57 -74t20.5 -98.5q0 -79 -34.5 -136.5 t-87.5 -102t-116 -79t-121 -69t-102.5 -72t-59.5 -86.5h430l-26 -135h-598z" />
<glyph unicode="&#xb3;" horiz-adv-x="797" d="M8 981l96 100q22 -27 53 -47q26 -18 65.5 -32.5t92.5 -14.5q38 0 73 13.5t61.5 37.5t42.5 57t16 72q0 29 -13 51.5t-35 38t-50 23.5t-58 8h-69l-25 78l221 211q9 8 19.5 16.5t19.5 16.5q11 8 21 16v4q-12 -2 -24 -3q-11 -2 -24 -2.5t-26 -0.5h-283l25 137h557l-19 -98 l-274 -258q32 -6 66.5 -22.5t63 -45t47 -70.5t18.5 -98q0 -60 -26 -118t-73 -103.5t-111.5 -73.5t-142.5 -28q-75 0 -132 20.5t-95 46.5q-46 30 -78 68z" />
<glyph unicode="&#xb4;" horiz-adv-x="1022" d="M186 1546l201 260h223l-245 -260h-179z" />
<glyph unicode="&#xb5;" horiz-adv-x="1266" d="M-29 -410l281 1446h199l-119 -610q-6 -34 -9.5 -64t-3.5 -55q0 -34 7.5 -61t25.5 -46t48 -29.5t75 -10.5q78 0 146.5 34.5t123.5 91.5t92 130t52 149l92 471h199l-201 -1036h-195l25 121q4 18 8 35.5t9 31.5q4 16 10 31h-5q-21 -38 -60 -80.5t-92.5 -79t-121 -60.5 t-145.5 -24q-57 0 -105.5 16.5t-79.5 51.5h-4q-2 -31 -5 -60q-2 -26 -5 -53.5t-8 -50.5l-58 -289h-176z" />
<glyph unicode="&#xb6;" horiz-adv-x="1210" d="M147 909q0 73 22 141.5t61 128t92.5 109t116 84.5t131.5 54.5t139 19.5h581l-33 -176h-403l-266 -1372h-154l115 596q-78 0 -151 31t-128.5 86t-89 131.5t-33.5 166.5zM715 -102l241 1255h154l-244 -1255h-151z" />
<glyph unicode="&#xb7;" horiz-adv-x="553" d="M147 485l41 215h207l-41 -215h-207z" />
<glyph unicode="&#xb8;" horiz-adv-x="1022" d="M184 -410l23 117q12 -3 25 -6q11 -2 26.5 -4t32.5 -2q19 0 38.5 3.5t35.5 12.5t26 23t10 35q0 26 -25.5 39.5t-70.5 13.5q-7 0 -13.5 -0.5t-11.5 -0.5q-6 -1 -12 -1l103 227l96 -20l-2 -17l-47 -112q22 -4 44 -14t39.5 -26.5t28.5 -39.5t11 -54q0 -51 -22.5 -87 t-57 -58.5t-76 -32.5t-80.5 -10q-27 0 -49.5 2t-38.5 5q-18 3 -33 7z" />
<glyph unicode="&#xb9;" horiz-adv-x="797" d="M43 866l25 135h190l96 500q7 25 11 38q3 8 6 15h-4q-5 -5 -11 -12q-5 -6 -13.5 -14t-20.5 -19l-82 -65l-78 106l260 211h137l-147 -760h188l-27 -135h-530z" />
<glyph unicode="&#xba;" horiz-adv-x="950" d="M141 543l23 116h641l-23 -116h-641zM217 1071q0 84 34.5 156.5t91.5 126t129.5 84t148.5 30.5q67 0 123.5 -21t97.5 -59t63.5 -90.5t22.5 -115.5q0 -85 -35 -157.5t-92 -125.5t-130 -83t-149 -30q-67 0 -123 21t-96.5 58.5t-63 90t-22.5 115.5zM367 1083q0 -38 12 -68 t33.5 -52t52 -33.5t67.5 -11.5q45 0 89.5 19t79 53.5t56 81t21.5 102.5q0 36 -12 66t-33.5 51.5t-52 33.5t-66.5 12q-47 0 -91.5 -19.5t-79 -53.5t-55.5 -80.5t-21 -100.5z" />
<glyph unicode="&#xbb;" horiz-adv-x="1135" d="M2 158l447 430l-263 411h189l264 -424l-426 -417h-211zM446 158l410 430l-262 411h188l265 -424l-392 -417h-209z" />
<glyph unicode="&#xbc;" horiz-adv-x="1966" d="M104 552l25 135h190l96 500q7 25 11 38q3 8 6 15h-4q-5 -5 -11 -12q-5 -6 -13.5 -14t-20.5 -19l-82 -65l-78 106l260 211h137l-147 -760h188l-27 -135h-530zM410 0l967 1446h164l-967 -1446h-164zM1088 220l18 103l516 573h177l-107 -540h127l-25 -136h-127l-43 -219 h-151l43 219h-428zM1291 356h249l50 252q4 20 9 41t10 38q5 20 11 39h-4q-12 -16 -24 -33q-11 -14 -25 -31.5t-29 -33.5l-247 -268v-4z" />
<glyph unicode="&#xbd;" horiz-adv-x="1948" d="M104 552l25 135h190l96 500q7 25 11 38q3 8 6 15h-4q-5 -5 -11 -12q-5 -6 -13.5 -14t-20.5 -19l-82 -65l-78 106l260 211h137l-147 -760h188l-27 -135h-530zM414 0l967 1446h164l-967 -1446h-164zM1112 1q1 80 26 141.5t64 109.5t89 85t101.5 68.5t101 60t88 58.5t62 65 t23.5 80q0 46 -33.5 76t-89.5 30q-38 0 -73.5 -15.5t-61.5 -33.5q-32 -22 -58 -49l-90 100q37 39 83 70q39 26 93 48t117 22q59 0 109 -16.5t86.5 -47t57 -74t20.5 -98.5q0 -79 -34.5 -136.5t-87.5 -102t-116 -79t-121 -69t-102.5 -72t-59.5 -86.5h430l-26 -135h-598z" />
<glyph unicode="&#xbe;" horiz-adv-x="1985" d="M84 667l96 100q22 -27 53 -47q26 -18 65.5 -32.5t92.5 -14.5q38 0 73 13.5t61.5 37.5t42.5 57t16 72q0 29 -13 51.5t-35 38t-50 23.5t-58 8h-69l-25 78l221 211q9 8 19.5 16.5t19.5 16.5q11 8 21 16v4q-12 -2 -24 -3q-11 -2 -24 -2.5t-26 -0.5h-283l25 137h557l-19 -98 l-274 -258q32 -6 66.5 -22.5t63 -45t47 -70.5t18.5 -98q0 -60 -26 -118t-73 -103.5t-111.5 -73.5t-142.5 -28q-75 0 -132 20.5t-95 46.5q-46 30 -78 68zM428 0l967 1446h164l-967 -1446h-164zM1106 220l18 103l516 573h177l-107 -540h127l-25 -136h-127l-43 -219h-151 l43 219h-428zM1309 356h249l50 252q4 20 9 41t10 38q5 20 11 39h-4q-12 -16 -24 -33q-11 -14 -25 -31.5t-29 -33.5l-247 -268v-4z" />
<glyph unicode="&#xbf;" horiz-adv-x="924" d="M-51 -102q0 90 32.5 158t82 121.5t108.5 97.5t113 87.5t94.5 91.5t52.5 109l17 76h194l-18 -88q-17 -83 -57.5 -144t-92.5 -110t-107.5 -90.5t-101.5 -84t-76 -90t-30 -110.5q0 -36 13.5 -67t39 -53.5t62 -35t81.5 -12.5q51 0 96 13.5t80 30.5q40 19 74 44l88 -153 q-48 -34 -106 -60q-50 -23 -116 -41t-142 -18q-81 0 -151 22.5t-121 65t-80 103.5t-29 137zM477 836l41 200h205l-39 -200h-207z" />
<glyph unicode="&#xc0;" horiz-adv-x="1282" d="M-98 0l792 1446h226l235 -1446h-203l-63 416h-545l-225 -416h-217zM428 584h440l-71 458q-5 28 -8.5 63t-6.5 67q-4 37 -6 75h-4q-15 -38 -32 -75q-14 -32 -31 -67t-31 -63zM598 1806h205l96 -260h-158z" />
<glyph unicode="&#xc1;" horiz-adv-x="1282" d="M-98 0l792 1446h226l235 -1446h-203l-63 416h-545l-225 -416h-217zM428 584h440l-71 458q-5 28 -8.5 63t-6.5 67q-4 37 -6 75h-4q-15 -38 -32 -75q-14 -32 -31 -67t-31 -63zM733 1546l201 260h223l-245 -260h-179z" />
<glyph unicode="&#xc2;" horiz-adv-x="1282" d="M-98 0l792 1446h226l235 -1446h-203l-63 416h-545l-225 -416h-217zM428 584h440l-71 458q-5 28 -8.5 63t-6.5 67q-4 37 -6 75h-4q-15 -38 -32 -75q-14 -32 -31 -67t-31 -63zM537 1546l231 260h207l129 -260h-168l-73 164h-5l-139 -164h-182z" />
<glyph unicode="&#xc3;" horiz-adv-x="1282" d="M-98 0l792 1446h226l235 -1446h-203l-63 416h-545l-225 -416h-217zM428 584h440l-71 458q-5 28 -8.5 63t-6.5 67q-4 37 -6 75h-4q-15 -38 -32 -75q-14 -32 -31 -67t-31 -63zM498 1548q25 128 85 194t159 66q48 0 78 -21.5t52 -48t42.5 -48t50.5 -21.5q23 0 40 12.5t29 32 t19.5 43t11.5 45.5h146q-25 -127 -84.5 -193.5t-159.5 -66.5q-31 0 -54.5 10.5t-41.5 25.5t-32.5 33.5t-29.5 33.5t-31 25.5t-36 10.5q-22 0 -38 -12t-28 -31t-20 -43t-13 -47h-145z" />
<glyph unicode="&#xc4;" horiz-adv-x="1282" d="M-98 0l792 1446h226l235 -1446h-203l-63 416h-545l-225 -416h-217zM428 584h440l-71 458q-5 28 -8.5 63t-6.5 67q-4 37 -6 75h-4q-15 -38 -32 -75q-14 -32 -31 -67t-31 -63zM588 1599l41 207h164l-41 -207h-164zM932 1599l39 207h164l-41 -207h-162z" />
<glyph unicode="&#xc5;" horiz-adv-x="1282" d="M-98 0l792 1446h226l235 -1446h-203l-63 416h-545l-225 -416h-217zM428 584h440l-71 458q-5 28 -8.5 63t-6.5 67q-4 37 -6 75h-4q-15 -38 -32 -75q-14 -32 -31 -67t-31 -63zM678 1655q0 39 17 70.5t44 54t61.5 35t70.5 12.5q69 0 114 -34.5t45 -100.5q0 -39 -17.5 -70 t-45 -53.5t-62.5 -34.5t-69 -12t-63 8.5t-50 25t-33 41.5t-12 58zM785 1657q0 -23 14.5 -37t42.5 -14q16 0 31 6.5t26 17.5t18 26.5t7 33.5q0 24 -15.5 39.5t-41.5 15.5q-16 0 -31 -6.5t-26 -18.5t-18 -28t-7 -35z" />
<glyph unicode="&#xc6;" horiz-adv-x="1817" d="M-102 0l874 1446h1075l-35 -176h-638l-89 -453h519l-35 -176h-518l-90 -465h671l-35 -176h-872l125 643h-344l-383 -643h-225zM606 811h277l88 459h-92z" />
<glyph unicode="&#xc7;" horiz-adv-x="1485" d="M115 602q0 119 32 229.5t89.5 207t137 176t174.5 136t202.5 88t220.5 31.5q68 0 126.5 -8.5t108 -22t90 -30.5t72.5 -35q75 -42 125 -96l-121 -139q-43 40 -102 72q-51 27 -124 50t-169 23q-92 0 -176 -25.5t-156.5 -70.5t-131.5 -107.5t-101 -137.5t-65 -159t-23 -172 q0 -96 29.5 -178.5t86 -142.5t138 -94.5t186.5 -34.5q51 0 98.5 8t90.5 21t81.5 29.5t71.5 34.5q76 40 139 93l88 -160q-72 -60 -162 -107q-38 -20 -84 -39t-99 -34t-111.5 -24t-122.5 -9h-2l-33 -77q22 -4 44 -14t39.5 -26.5t28.5 -39.5t11 -54q0 -51 -22.5 -87t-57 -58.5 t-76 -32.5t-80.5 -10q-27 0 -49 2t-38 5q-18 3 -34 7l23 117q12 -3 25 -6q11 -2 26.5 -4t32.5 -2q19 0 38.5 3.5t35.5 12.5t26 23t10 35q0 26 -25.5 39.5t-70.5 13.5q-7 0 -13.5 -0.5t-11.5 -0.5q-6 -1 -12 -1l74 164q-125 16 -223 68t-165.5 133t-103.5 187t-36 230z" />
<glyph unicode="&#xc8;" horiz-adv-x="1171" d="M78 0l284 1446h838l-35 -176h-637l-88 -453h518l-34 -176h-518l-91 -465h672l-33 -176h-876zM592 1806h205l96 -260h-158z" />
<glyph unicode="&#xc9;" horiz-adv-x="1171" d="M78 0l284 1446h838l-35 -176h-637l-88 -453h518l-34 -176h-518l-91 -465h672l-33 -176h-876zM727 1546l201 260h223l-245 -260h-179z" />
<glyph unicode="&#xca;" horiz-adv-x="1171" d="M78 0l284 1446h838l-35 -176h-637l-88 -453h518l-34 -176h-518l-91 -465h672l-33 -176h-876zM531 1546l231 260h207l129 -260h-168l-73 164h-5l-139 -164h-182z" />
<glyph unicode="&#xcb;" horiz-adv-x="1171" d="M78 0l284 1446h838l-35 -176h-637l-88 -453h518l-34 -176h-518l-91 -465h672l-33 -176h-876zM580 1599l41 207h164l-41 -207h-164zM924 1599l39 207h164l-41 -207h-162z" />
<glyph unicode="&#xcc;" horiz-adv-x="596" d="M78 0l282 1446h201l-280 -1446h-203zM252 1806h205l96 -260h-158z" />
<glyph unicode="&#xcd;" horiz-adv-x="596" d="M78 0l282 1446h201l-280 -1446h-203zM385 1546l201 260h223l-245 -260h-179z" />
<glyph unicode="&#xce;" horiz-adv-x="596" d="M78 0l282 1446h201l-280 -1446h-203zM191 1546l231 260h207l129 -260h-168l-73 164h-5l-139 -164h-182z" />
<glyph unicode="&#xcf;" horiz-adv-x="596" d="M78 0l282 1446h201l-280 -1446h-203zM242 1599l41 207h164l-41 -207h-164zM586 1599l39 207h164l-41 -207h-162z" />
<glyph unicode="&#xd0;" horiz-adv-x="1550" d="M115 0l123 639h-119l33 168h118l125 639h447q149 0 267.5 -37.5t201 -109.5t126.5 -177t44 -239q0 -122 -28.5 -234.5t-81.5 -210.5t-128.5 -178.5t-170.5 -138.5t-207 -89.5t-238 -31.5h-512zM348 176h264q144 0 265.5 53t209 146t136.5 219t49 272q0 98 -31 173.5 t-88.5 126.5t-140.5 77.5t-187 26.5h-262l-92 -463h309l-32 -168h-310z" />
<glyph unicode="&#xd1;" horiz-adv-x="1536" d="M78 0l282 1446h187l463 -940q14 -29 27.5 -65t24.5 -68q13 -38 25 -76h5q3 37 7 74q3 32 8 68.5t11 66.5l182 940h203l-282 -1446h-187l-463 938q-15 30 -29 66.5t-25 68.5q-13 38 -25 76h-5q-3 -38 -7 -75q-4 -32 -8.5 -68.5t-10.5 -67.5l-182 -938h-201zM619 1548 q25 128 85 194t159 66q48 0 78 -21.5t52 -48t42.5 -48t50.5 -21.5q23 0 40 12.5t29 32t19.5 43t11.5 45.5h146q-25 -127 -84.5 -193.5t-159.5 -66.5q-31 0 -54.5 10.5t-41.5 25.5t-32.5 33.5t-29.5 33.5t-31 25.5t-36 10.5q-22 0 -38 -12t-28 -31t-20 -43t-13 -47h-145z" />
<glyph unicode="&#xd2;" horiz-adv-x="1677" d="M109 606q0 117 33 226.5t92.5 205.5t140.5 175.5t176.5 136.5t202.5 88.5t217 31.5q145 0 264 -45.5t203.5 -127t131 -194.5t46.5 -247q0 -119 -33.5 -231t-93.5 -209.5t-141.5 -178.5t-177.5 -139.5t-202.5 -90.5t-215.5 -32q-145 0 -263.5 47t-203 131t-130.5 200 t-46 253zM315 614q0 -100 32.5 -183t90.5 -143t138.5 -93t177.5 -33q81 0 160.5 24.5t152 69t135 107t108 138.5t71.5 163.5t26 181.5q0 97 -32 177.5t-90 138.5t-138.5 90t-177.5 32q-83 0 -163.5 -24t-153 -67.5t-134.5 -104.5t-107 -135.5t-70.5 -160t-25.5 -178.5z M787 1806h205l96 -260h-158z" />
<glyph unicode="&#xd3;" horiz-adv-x="1677" d="M109 606q0 117 33 226.5t92.5 205.5t140.5 175.5t176.5 136.5t202.5 88.5t217 31.5q145 0 264 -45.5t203.5 -127t131 -194.5t46.5 -247q0 -119 -33.5 -231t-93.5 -209.5t-141.5 -178.5t-177.5 -139.5t-202.5 -90.5t-215.5 -32q-145 0 -263.5 47t-203 131t-130.5 200 t-46 253zM315 614q0 -100 32.5 -183t90.5 -143t138.5 -93t177.5 -33q81 0 160.5 24.5t152 69t135 107t108 138.5t71.5 163.5t26 181.5q0 97 -32 177.5t-90 138.5t-138.5 90t-177.5 32q-83 0 -163.5 -24t-153 -67.5t-134.5 -104.5t-107 -135.5t-70.5 -160t-25.5 -178.5z M921 1546l201 260h223l-245 -260h-179z" />
<glyph unicode="&#xd4;" horiz-adv-x="1677" d="M109 606q0 117 33 226.5t92.5 205.5t140.5 175.5t176.5 136.5t202.5 88.5t217 31.5q145 0 264 -45.5t203.5 -127t131 -194.5t46.5 -247q0 -119 -33.5 -231t-93.5 -209.5t-141.5 -178.5t-177.5 -139.5t-202.5 -90.5t-215.5 -32q-145 0 -263.5 47t-203 131t-130.5 200 t-46 253zM315 614q0 -100 32.5 -183t90.5 -143t138.5 -93t177.5 -33q81 0 160.5 24.5t152 69t135 107t108 138.5t71.5 163.5t26 181.5q0 97 -32 177.5t-90 138.5t-138.5 90t-177.5 32q-83 0 -163.5 -24t-153 -67.5t-134.5 -104.5t-107 -135.5t-70.5 -160t-25.5 -178.5z M725 1546l231 260h207l129 -260h-168l-73 164h-5l-139 -164h-182z" />
<glyph unicode="&#xd5;" horiz-adv-x="1677" d="M109 606q0 117 33 226.5t92.5 205.5t140.5 175.5t176.5 136.5t202.5 88.5t217 31.5q145 0 264 -45.5t203.5 -127t131 -194.5t46.5 -247q0 -119 -33.5 -231t-93.5 -209.5t-141.5 -178.5t-177.5 -139.5t-202.5 -90.5t-215.5 -32q-145 0 -263.5 47t-203 131t-130.5 200 t-46 253zM315 614q0 -100 32.5 -183t90.5 -143t138.5 -93t177.5 -33q81 0 160.5 24.5t152 69t135 107t108 138.5t71.5 163.5t26 181.5q0 97 -32 177.5t-90 138.5t-138.5 90t-177.5 32q-83 0 -163.5 -24t-153 -67.5t-134.5 -104.5t-107 -135.5t-70.5 -160t-25.5 -178.5z M686 1548q25 128 85 194t159 66q48 0 78 -21.5t52 -48t42.5 -48t50.5 -21.5q23 0 40 12.5t29 32t19.5 43t11.5 45.5h146q-25 -127 -84.5 -193.5t-159.5 -66.5q-31 0 -54.5 10.5t-41.5 25.5t-32.5 33.5t-29.5 33.5t-31 25.5t-36 10.5q-22 0 -38 -12t-28 -31t-20 -43t-13 -47 h-145z" />
<glyph unicode="&#xd6;" horiz-adv-x="1677" d="M109 606q0 117 33 226.5t92.5 205.5t140.5 175.5t176.5 136.5t202.5 88.5t217 31.5q145 0 264 -45.5t203.5 -127t131 -194.5t46.5 -247q0 -119 -33.5 -231t-93.5 -209.5t-141.5 -178.5t-177.5 -139.5t-202.5 -90.5t-215.5 -32q-145 0 -263.5 47t-203 131t-130.5 200 t-46 253zM315 614q0 -100 32.5 -183t90.5 -143t138.5 -93t177.5 -33q81 0 160.5 24.5t152 69t135 107t108 138.5t71.5 163.5t26 181.5q0 97 -32 177.5t-90 138.5t-138.5 90t-177.5 32q-83 0 -163.5 -24t-153 -67.5t-134.5 -104.5t-107 -135.5t-70.5 -160t-25.5 -178.5z M776 1599l41 207h164l-41 -207h-164zM1120 1599l39 207h164l-41 -207h-162z" />
<glyph unicode="&#xd7;" horiz-adv-x="1409" d="M170 113l422 471l-422 471l113 112l417 -467l420 467l113 -112l-424 -471l424 -471l-113 -113l-420 465l-417 -465z" />
<glyph unicode="&#xd8;" horiz-adv-x="1681" d="M113 606q0 117 33.5 226.5t92.5 205.5t140 175.5t177 136.5t202.5 88.5t216.5 31.5q112 0 209 -27.5t176 -80.5l127 137l94 -78l-127 -137q79 -81 121.5 -189.5t42.5 -238.5q0 -119 -33.5 -231t-93 -209.5t-141 -178.5t-177.5 -139.5t-202 -90.5t-215 -32q-119 0 -218 31 t-180 88l-133 -145l-94 76l137 149q-75 84 -115 193t-40 239zM319 614q0 -86 22.5 -158.5t66.5 -129.5l817 886q-53 34 -116.5 53t-135.5 19q-83 0 -163.5 -24t-153 -67.5t-134.5 -104.5t-107 -135.5t-70.5 -160t-25.5 -178.5zM496 242q52 -39 118 -59.5t144 -20.5 q81 0 160.5 24.5t152 69t134.5 107t107 138.5t71 163.5t26 181.5q0 85 -24.5 157t-69.5 127z" />
<glyph unicode="&#xd9;" horiz-adv-x="1489" d="M147 403q0 28 3.5 57t9.5 60l180 926h201l-181 -932q-5 -22 -6.5 -43t-1.5 -43q0 -128 80 -197t225 -69q84 0 156.5 24t129 69.5t95 112t54.5 150.5l182 928h201l-185 -944q-24 -121 -80 -218.5t-138.5 -166t-188.5 -105.5t-230 -37q-110 0 -202.5 28.5t-160 83.5 t-105.5 134.5t-38 181.5zM697 1806h205l96 -260h-158z" />
<glyph unicode="&#xda;" horiz-adv-x="1489" d="M147 403q0 28 3.5 57t9.5 60l180 926h201l-181 -932q-5 -22 -6.5 -43t-1.5 -43q0 -128 80 -197t225 -69q84 0 156.5 24t129 69.5t95 112t54.5 150.5l182 928h201l-185 -944q-24 -121 -80 -218.5t-138.5 -166t-188.5 -105.5t-230 -37q-110 0 -202.5 28.5t-160 83.5 t-105.5 134.5t-38 181.5zM831 1546l201 260h223l-245 -260h-179z" />
<glyph unicode="&#xdb;" horiz-adv-x="1489" d="M147 403q0 28 3.5 57t9.5 60l180 926h201l-181 -932q-5 -22 -6.5 -43t-1.5 -43q0 -128 80 -197t225 -69q84 0 156.5 24t129 69.5t95 112t54.5 150.5l182 928h201l-185 -944q-24 -121 -80 -218.5t-138.5 -166t-188.5 -105.5t-230 -37q-110 0 -202.5 28.5t-160 83.5 t-105.5 134.5t-38 181.5zM635 1546l231 260h207l129 -260h-168l-73 164h-5l-139 -164h-182z" />
<glyph unicode="&#xdc;" horiz-adv-x="1489" d="M147 403q0 28 3.5 57t9.5 60l180 926h201l-181 -932q-5 -22 -6.5 -43t-1.5 -43q0 -128 80 -197t225 -69q84 0 156.5 24t129 69.5t95 112t54.5 150.5l182 928h201l-185 -944q-24 -121 -80 -218.5t-138.5 -166t-188.5 -105.5t-230 -37q-110 0 -202.5 28.5t-160 83.5 t-105.5 134.5t-38 181.5zM684 1599l41 207h164l-41 -207h-164zM1028 1599l39 207h164l-41 -207h-162z" />
<glyph unicode="&#xdd;" horiz-adv-x="1186" d="M164 1446h217l174 -475q11 -30 20 -62.5t17 -59.5q9 -32 16 -61h4q19 29 39 60q17 26 39 58t45 63l355 477h243l-651 -840l-119 -606h-201l121 612zM669 1546l201 260h223l-245 -260h-179z" />
<glyph unicode="&#xde;" horiz-adv-x="1247" d="M78 0l282 1446h203l-49 -246h295q66 0 122.5 -11t104.5 -36q87 -45 134 -128.5t47 -193.5q0 -87 -24 -164.5t-66 -142t-100 -113.5t-126 -79q-51 -22 -105 -32.5t-110 -10.5h-348l-57 -289h-203zM371 465h295q42 0 80.5 8t72.5 25q85 40 137 122t52 197q0 99 -60 153 t-172 54h-297z" />
<glyph unicode="&#xdf;" horiz-adv-x="1200" d="M37 0l213 1102q18 90 66 159t114.5 115.5t145.5 70t157 23.5q83 0 150 -21.5t114.5 -60t73 -91.5t25.5 -115q0 -61 -21.5 -107.5t-53 -84t-69 -67.5t-69 -58.5t-53 -57t-21.5 -62.5q0 -32 21 -60t52.5 -56.5t68 -59t68 -66t52.5 -78.5t21 -97q0 -72 -32.5 -134 t-86.5 -108.5t-124.5 -73t-146.5 -26.5q-73 0 -129.5 9t-94.5 20q-46 13 -79 30l35 172q31 -17 70 -30q33 -11 79.5 -20t104.5 -9q32 0 67.5 9.5t65 30t49 53t19.5 77.5q0 39 -21 71.5t-53 63t-68.5 59.5t-68.5 61t-53 68.5t-21 81.5q0 52 21.5 93t53.5 76t69.5 65.5 t69.5 61t53.5 63t21.5 71.5q0 27 -10 51.5t-31 43t-52.5 29.5t-74.5 11q-45 0 -90.5 -14t-84 -42t-66.5 -70.5t-40 -100.5l-208 -1071h-199z" />
<glyph unicode="&#xe0;" d="M0 238q0 84 31.5 146.5t85 108t123.5 75.5t146.5 47.5t155 24.5t148.5 7h51q7 31 8 50.5t1 33.5q0 36 -9.5 66t-31.5 51t-58 33t-88 12q-60 0 -116 -15.5t-99 -33.5q-50 -22 -94 -49l-53 157q51 30 113 54q53 20 124 37.5t154 17.5q75 0 140.5 -16.5t114 -53.5t77 -95 t28.5 -142q0 -25 -3 -55.5t-9 -59.5l-125 -639h-184l20 104q6 36 13.5 59t9.5 23h-4l-10 -15.5t-30.5 -39t-51 -51t-70.5 -51t-90 -39t-109 -15.5q-62 0 -117.5 17.5t-98.5 51t-68 82.5t-25 112zM203 270q0 -27 10 -51t30 -43t51.5 -30t74.5 -11q62 0 118 29.5t100.5 76.5 t76 105.5t45.5 116.5l8 35h-51q-37 0 -85 -2t-99.5 -10t-101.5 -23t-89.5 -40t-63.5 -62.5t-24 -90.5zM410 1447h205l96 -260h-158z" />
<glyph unicode="&#xe1;" d="M0 238q0 84 31.5 146.5t85 108t123.5 75.5t146.5 47.5t155 24.5t148.5 7h51q7 31 8 50.5t1 33.5q0 36 -9.5 66t-31.5 51t-58 33t-88 12q-60 0 -116 -15.5t-99 -33.5q-50 -22 -94 -49l-53 157q51 30 113 54q53 20 124 37.5t154 17.5q75 0 140.5 -16.5t114 -53.5t77 -95 t28.5 -142q0 -25 -3 -55.5t-9 -59.5l-125 -639h-184l20 104q6 36 13.5 59t9.5 23h-4l-10 -15.5t-30.5 -39t-51 -51t-70.5 -51t-90 -39t-109 -15.5q-62 0 -117.5 17.5t-98.5 51t-68 82.5t-25 112zM203 270q0 -27 10 -51t30 -43t51.5 -30t74.5 -11q62 0 118 29.5t100.5 76.5 t76 105.5t45.5 116.5l8 35h-51q-37 0 -85 -2t-99.5 -10t-101.5 -23t-89.5 -40t-63.5 -62.5t-24 -90.5zM544 1187l201 260h223l-245 -260h-179z" />
<glyph unicode="&#xe2;" d="M0 238q0 84 31.5 146.5t85 108t123.5 75.5t146.5 47.5t155 24.5t148.5 7h51q7 31 8 50.5t1 33.5q0 36 -9.5 66t-31.5 51t-58 33t-88 12q-60 0 -116 -15.5t-99 -33.5q-50 -22 -94 -49l-53 157q51 30 113 54q53 20 124 37.5t154 17.5q75 0 140.5 -16.5t114 -53.5t77 -95 t28.5 -142q0 -25 -3 -55.5t-9 -59.5l-125 -639h-184l20 104q6 36 13.5 59t9.5 23h-4l-10 -15.5t-30.5 -39t-51 -51t-70.5 -51t-90 -39t-109 -15.5q-62 0 -117.5 17.5t-98.5 51t-68 82.5t-25 112zM203 270q0 -27 10 -51t30 -43t51.5 -30t74.5 -11q62 0 118 29.5t100.5 76.5 t76 105.5t45.5 116.5l8 35h-51q-37 0 -85 -2t-99.5 -10t-101.5 -23t-89.5 -40t-63.5 -62.5t-24 -90.5zM348 1187l231 260h207l129 -260h-168l-73 164h-5l-139 -164h-182z" />
<glyph unicode="&#xe3;" d="M0 238q0 84 31.5 146.5t85 108t123.5 75.5t146.5 47.5t155 24.5t148.5 7h51q7 31 8 50.5t1 33.5q0 36 -9.5 66t-31.5 51t-58 33t-88 12q-60 0 -116 -15.5t-99 -33.5q-50 -22 -94 -49l-53 157q51 30 113 54q53 20 124 37.5t154 17.5q75 0 140.5 -16.5t114 -53.5t77 -95 t28.5 -142q0 -25 -3 -55.5t-9 -59.5l-125 -639h-184l20 104q6 36 13.5 59t9.5 23h-4l-10 -15.5t-30.5 -39t-51 -51t-70.5 -51t-90 -39t-109 -15.5q-62 0 -117.5 17.5t-98.5 51t-68 82.5t-25 112zM203 270q0 -27 10 -51t30 -43t51.5 -30t74.5 -11q62 0 118 29.5t100.5 76.5 t76 105.5t45.5 116.5l8 35h-51q-37 0 -85 -2t-99.5 -10t-101.5 -23t-89.5 -40t-63.5 -62.5t-24 -90.5zM309 1189q25 128 85 194t159 66q48 0 78 -21.5t52 -48t42.5 -48t50.5 -21.5q23 0 40 12.5t29 32t19.5 43t11.5 45.5h146q-25 -127 -84.5 -193.5t-159.5 -66.5 q-31 0 -54.5 10.5t-41.5 25.5t-32.5 33.5t-29.5 33.5t-31 25.5t-36 10.5q-22 0 -38 -12t-28 -31t-20 -43t-13 -47h-145z" />
<glyph unicode="&#xe4;" d="M0 238q0 84 31.5 146.5t85 108t123.5 75.5t146.5 47.5t155 24.5t148.5 7h51q7 31 8 50.5t1 33.5q0 36 -9.5 66t-31.5 51t-58 33t-88 12q-60 0 -116 -15.5t-99 -33.5q-50 -22 -94 -49l-53 157q51 30 113 54q53 20 124 37.5t154 17.5q75 0 140.5 -16.5t114 -53.5t77 -95 t28.5 -142q0 -25 -3 -55.5t-9 -59.5l-125 -639h-184l20 104q6 36 13.5 59t9.5 23h-4l-10 -15.5t-30.5 -39t-51 -51t-70.5 -51t-90 -39t-109 -15.5q-62 0 -117.5 17.5t-98.5 51t-68 82.5t-25 112zM203 270q0 -27 10 -51t30 -43t51.5 -30t74.5 -11q62 0 118 29.5t100.5 76.5 t76 105.5t45.5 116.5l8 35h-51q-37 0 -85 -2t-99.5 -10t-101.5 -23t-89.5 -40t-63.5 -62.5t-24 -90.5zM397 1240l41 207h164l-41 -207h-164zM741 1240l39 207h164l-41 -207h-162z" />
<glyph unicode="&#xe5;" d="M0 238q0 84 31.5 146.5t85 108t123.5 75.5t146.5 47.5t155 24.5t148.5 7h51q7 31 8 50.5t1 33.5q0 36 -9.5 66t-31.5 51t-58 33t-88 12q-60 0 -116 -15.5t-99 -33.5q-50 -22 -94 -49l-53 157q51 30 113 54q53 20 124 37.5t154 17.5q75 0 140.5 -16.5t114 -53.5t77 -95 t28.5 -142q0 -25 -3 -55.5t-9 -59.5l-125 -639h-184l20 104q6 36 13.5 59t9.5 23h-4l-10 -15.5t-30.5 -39t-51 -51t-70.5 -51t-90 -39t-109 -15.5q-62 0 -117.5 17.5t-98.5 51t-68 82.5t-25 112zM203 270q0 -27 10 -51t30 -43t51.5 -30t74.5 -11q62 0 118 29.5t100.5 76.5 t76 105.5t45.5 116.5l8 35h-51q-37 0 -85 -2t-99.5 -10t-101.5 -23t-89.5 -40t-63.5 -62.5t-24 -90.5zM487 1296q0 39 17 70.5t44 54t61.5 35t70.5 12.5q69 0 114 -34.5t45 -100.5q0 -39 -17.5 -70t-45 -53.5t-62.5 -34.5t-69 -12t-63 8.5t-50 25t-33 41.5t-12 58zM594 1298 q0 -23 14.5 -37t42.5 -14q16 0 31 6.5t26 17.5t18 26.5t7 33.5q0 24 -15.5 39.5t-41.5 15.5q-16 0 -31 -6.5t-26 -18.5t-18 -28t-7 -35z" />
<glyph unicode="&#xe6;" horiz-adv-x="1761" d="M2 238q0 84 30.5 146.5t82.5 107.5t120.5 74t144.5 45.5t155.5 23t152.5 6.5h53q5 29 8 51t3 37q0 82 -47 123t-146 41q-57 0 -111 -15.5t-97 -33.5q-50 -22 -95 -49l-53 157q51 30 113 54q53 20 122.5 37.5t149.5 17.5q67 0 118.5 -13t90 -36t63.5 -55t39 -70h4 q78 88 177 131t208 43q100 0 174.5 -28t124 -78.5t74.5 -121.5t25 -157q0 -29 -5 -61t-11 -59q-7 -32 -15 -62h-746q-6 -38 -6 -68q0 -61 18 -112t54 -88t89 -58t122 -21q67 0 127 18.5t105 41.5q53 26 98 61l57 -157q-52 -38 -114 -68q-54 -26 -125.5 -47t-155.5 -21 q-81 0 -150 18t-124 51.5t-94 81t-60 105.5h-5q-6 -12 -20 -36t-38.5 -52.5t-58.5 -58t-79 -54t-101 -40t-124 -15.5q-65 0 -123 17t-102.5 50t-70.5 82t-26 114zM205 270q0 -27 10 -51.5t30.5 -43t52 -29.5t73.5 -11q63 0 119 30t100 77.5t75 106t44 116.5l6 27h-94 q-36 0 -81 -2.5t-91 -10.5t-90 -23t-78 -40t-55 -60.5t-21 -85.5zM946 643h537q2 12 3 25t1 28q0 52 -15.5 91t-42.5 65t-64 38.5t-79 12.5q-57 0 -109 -17.5t-96 -51t-78.5 -82t-56.5 -109.5z" />
<glyph unicode="&#xe7;" horiz-adv-x="1120" d="M55 426q0 88 23.5 169.5t66 152t101.5 128t130 99t151.5 64t166.5 22.5q102 0 176 -23.5t122 -51.5q56 -33 93 -75l-110 -129q-31 29 -71 53q-35 20 -84.5 37t-114.5 17q-88 0 -168.5 -35t-142.5 -96t-99 -142.5t-37 -175.5q0 -65 21.5 -118.5t61 -92.5t95.5 -60.5 t125 -21.5q72 0 135 22t111 48q55 31 102 70l56 -158q-51 -44 -116 -77q-56 -29 -133 -53t-173 -24h-4l-33 -77q22 -4 44 -14t39.5 -26.5t28.5 -39.5t11 -54q0 -51 -22.5 -87t-57 -58.5t-76 -32.5t-80.5 -10q-27 0 -49 2t-38 5q-18 3 -34 7l23 117q12 -3 25 -6 q11 -2 26.5 -4t32.5 -2q19 0 38.5 3.5t35.5 12.5t26 23t10 35q0 26 -25.5 39.5t-70.5 13.5q-7 0 -13.5 -0.5t-11.5 -0.5q-6 -1 -12 -1l74 166q-87 15 -156.5 53t-118 95t-74.5 131t-26 161z" />
<glyph unicode="&#xe8;" horiz-adv-x="1128" d="M55 418q0 129 45 245.5t125.5 205t190.5 140.5t241 52q101 0 175.5 -28.5t123.5 -79.5t73 -121t24 -154q0 -32 -5.5 -65t-11.5 -61q-7 -33 -16 -63h-756q-6 -30 -6 -61q0 -58 18.5 -109t55.5 -89.5t92.5 -60.5t128.5 -22q67 0 127 18.5t105 41.5q53 26 98 61l57 -157 q-52 -38 -114 -68q-54 -26 -125.5 -47t-155.5 -21q-114 0 -204.5 33t-154 92t-97.5 140t-34 178zM297 639h553q1 6 2 15q1 8 1.5 18t0.5 22q0 52 -15 91.5t-41.5 65.5t-63.5 39t-81 13q-57 0 -110.5 -18t-100.5 -52.5t-84 -83.5t-61 -110zM479 1447h205l96 -260h-158z" />
<glyph unicode="&#xe9;" horiz-adv-x="1128" d="M55 418q0 129 45 245.5t125.5 205t190.5 140.5t241 52q101 0 175.5 -28.5t123.5 -79.5t73 -121t24 -154q0 -32 -5.5 -65t-11.5 -61q-7 -33 -16 -63h-756q-6 -30 -6 -61q0 -58 18.5 -109t55.5 -89.5t92.5 -60.5t128.5 -22q67 0 127 18.5t105 41.5q53 26 98 61l57 -157 q-52 -38 -114 -68q-54 -26 -125.5 -47t-155.5 -21q-114 0 -204.5 33t-154 92t-97.5 140t-34 178zM297 639h553q1 6 2 15q1 8 1.5 18t0.5 22q0 52 -15 91.5t-41.5 65.5t-63.5 39t-81 13q-57 0 -110.5 -18t-100.5 -52.5t-84 -83.5t-61 -110zM614 1187l201 260h223l-245 -260 h-179z" />
<glyph unicode="&#xea;" horiz-adv-x="1128" d="M55 418q0 129 45 245.5t125.5 205t190.5 140.5t241 52q101 0 175.5 -28.5t123.5 -79.5t73 -121t24 -154q0 -32 -5.5 -65t-11.5 -61q-7 -33 -16 -63h-756q-6 -30 -6 -61q0 -58 18.5 -109t55.5 -89.5t92.5 -60.5t128.5 -22q67 0 127 18.5t105 41.5q53 26 98 61l57 -157 q-52 -38 -114 -68q-54 -26 -125.5 -47t-155.5 -21q-114 0 -204.5 33t-154 92t-97.5 140t-34 178zM297 639h553q1 6 2 15q1 8 1.5 18t0.5 22q0 52 -15 91.5t-41.5 65.5t-63.5 39t-81 13q-57 0 -110.5 -18t-100.5 -52.5t-84 -83.5t-61 -110zM418 1187l231 260h207l129 -260 h-168l-73 164h-5l-139 -164h-182z" />
<glyph unicode="&#xeb;" horiz-adv-x="1128" d="M55 418q0 129 45 245.5t125.5 205t190.5 140.5t241 52q101 0 175.5 -28.5t123.5 -79.5t73 -121t24 -154q0 -32 -5.5 -65t-11.5 -61q-7 -33 -16 -63h-756q-6 -30 -6 -61q0 -58 18.5 -109t55.5 -89.5t92.5 -60.5t128.5 -22q67 0 127 18.5t105 41.5q53 26 98 61l57 -157 q-52 -38 -114 -68q-54 -26 -125.5 -47t-155.5 -21q-114 0 -204.5 33t-154 92t-97.5 140t-34 178zM297 639h553q1 6 2 15q1 8 1.5 18t0.5 22q0 52 -15 91.5t-41.5 65.5t-63.5 39t-81 13q-57 0 -110.5 -18t-100.5 -52.5t-84 -83.5t-61 -110zM469 1240l41 207h164l-41 -207 h-164zM813 1240l39 207h164l-41 -207h-162z" />
<glyph unicode="&#xec;" horiz-adv-x="508" d="M37 0l201 1036h198l-200 -1036h-199zM138 1447h205l96 -260h-158z" />
<glyph unicode="&#xed;" horiz-adv-x="508" d="M37 0l201 1036h198l-200 -1036h-199zM272 1187l201 260h223l-245 -260h-179z" />
<glyph unicode="&#xee;" horiz-adv-x="508" d="M37 0l201 1036h198l-200 -1036h-199zM77 1187l231 260h207l129 -260h-168l-73 164h-5l-139 -164h-182z" />
<glyph unicode="&#xef;" horiz-adv-x="508" d="M37 0l201 1036h198l-200 -1036h-199zM126 1240l41 207h164l-41 -207h-164zM470 1240l39 207h164l-41 -207h-162z" />
<glyph unicode="&#xf0;" horiz-adv-x="1202" d="M51 391q0 68 18 136t52 130.5t84 116.5t114.5 94t142 63t167.5 23q65 0 112 -15t79 -32q37 -21 63 -47h4q-19 87 -64 157t-110 126l-406 -162l4 129l285 115q-59 34 -122 58.5t-128 41.5l82 148q103 -26 197.5 -67.5t175.5 -98.5l325 131l-2 -129l-221 -88 q92 -94 145.5 -218t53.5 -284q0 -71 -15 -154t-47 -165.5t-81 -159.5t-117.5 -135.5t-156.5 -94t-198 -35.5q-109 0 -190.5 33.5t-136 90.5t-82 132.5t-27.5 159.5zM254 395q0 -51 14 -96t43 -78.5t73.5 -53.5t104.5 -20q59 0 111.5 19.5t96 52.5t78 77t58 92.5t36 99 t12.5 96.5q0 47 -16.5 86t-48 66.5t-76.5 43t-103 15.5q-82 0 -152 -32.5t-121.5 -87.5t-80.5 -127.5t-29 -152.5z" />
<glyph unicode="&#xf1;" horiz-adv-x="1233" d="M37 0l201 1036h194l-22 -121q-5 -19 -9.5 -36t-9.5 -31q-5 -16 -10 -31h4q21 39 61 82t96 79t124.5 59.5t146.5 23.5q69 0 125 -16.5t95.5 -50t61 -85.5t21.5 -123q0 -29 -4 -62.5t-10 -68.5l-127 -655h-199l119 612q6 32 10 61.5t4 55.5q0 77 -41 113.5t-112 36.5 q-78 0 -149 -33t-128 -88.5t-97 -129.5t-56 -155l-90 -473h-199zM422 1189q25 128 85 194t159 66q48 0 78 -21.5t52 -48t42.5 -48t50.5 -21.5q23 0 40 12.5t29 32t19.5 43t11.5 45.5h146q-25 -127 -84.5 -193.5t-159.5 -66.5q-31 0 -54.5 10.5t-41.5 25.5t-32.5 33.5 t-29.5 33.5t-31 25.5t-36 10.5q-22 0 -38 -12t-28 -31t-20 -43t-13 -47h-145z" />
<glyph unicode="&#xf2;" horiz-adv-x="1274" d="M53 432q0 89 25 170t69 151t104.5 127t132 97t150.5 62t160 22q108 0 198.5 -33t156 -92.5t101.5 -143t36 -184.5q0 -90 -25 -172t-69.5 -152t-105.5 -127.5t-132 -97.5t-149 -62t-158 -22q-109 0 -200 33.5t-156 94t-101.5 144.5t-36.5 185zM256 440q0 -65 21.5 -119 t60.5 -92.5t92.5 -60t118.5 -21.5q80 0 157.5 34.5t139 95t99.5 143t38 178.5q0 64 -21.5 118t-60 92t-92 59.5t-117.5 21.5q-82 0 -160.5 -34.5t-139.5 -95t-98.5 -142.5t-37.5 -177zM520 1447h205l96 -260h-158z" />
<glyph unicode="&#xf3;" horiz-adv-x="1274" d="M53 432q0 89 25 170t69 151t104.5 127t132 97t150.5 62t160 22q108 0 198.5 -33t156 -92.5t101.5 -143t36 -184.5q0 -90 -25 -172t-69.5 -152t-105.5 -127.5t-132 -97.5t-149 -62t-158 -22q-109 0 -200 33.5t-156 94t-101.5 144.5t-36.5 185zM256 440q0 -65 21.5 -119 t60.5 -92.5t92.5 -60t118.5 -21.5q80 0 157.5 34.5t139 95t99.5 143t38 178.5q0 64 -21.5 118t-60 92t-92 59.5t-117.5 21.5q-82 0 -160.5 -34.5t-139.5 -95t-98.5 -142.5t-37.5 -177zM655 1187l201 260h223l-245 -260h-179z" />
<glyph unicode="&#xf4;" horiz-adv-x="1274" d="M53 432q0 89 25 170t69 151t104.5 127t132 97t150.5 62t160 22q108 0 198.5 -33t156 -92.5t101.5 -143t36 -184.5q0 -90 -25 -172t-69.5 -152t-105.5 -127.5t-132 -97.5t-149 -62t-158 -22q-109 0 -200 33.5t-156 94t-101.5 144.5t-36.5 185zM256 440q0 -65 21.5 -119 t60.5 -92.5t92.5 -60t118.5 -21.5q80 0 157.5 34.5t139 95t99.5 143t38 178.5q0 64 -21.5 118t-60 92t-92 59.5t-117.5 21.5q-82 0 -160.5 -34.5t-139.5 -95t-98.5 -142.5t-37.5 -177zM459 1187l231 260h207l129 -260h-168l-73 164h-5l-139 -164h-182z" />
<glyph unicode="&#xf5;" horiz-adv-x="1274" d="M53 432q0 89 25 170t69 151t104.5 127t132 97t150.5 62t160 22q108 0 198.5 -33t156 -92.5t101.5 -143t36 -184.5q0 -90 -25 -172t-69.5 -152t-105.5 -127.5t-132 -97.5t-149 -62t-158 -22q-109 0 -200 33.5t-156 94t-101.5 144.5t-36.5 185zM256 440q0 -65 21.5 -119 t60.5 -92.5t92.5 -60t118.5 -21.5q80 0 157.5 34.5t139 95t99.5 143t38 178.5q0 64 -21.5 118t-60 92t-92 59.5t-117.5 21.5q-82 0 -160.5 -34.5t-139.5 -95t-98.5 -142.5t-37.5 -177zM418 1189q25 128 85 194t159 66q48 0 78 -21.5t52 -48t42.5 -48t50.5 -21.5 q23 0 40 12.5t29 32t19.5 43t11.5 45.5h146q-25 -127 -84.5 -193.5t-159.5 -66.5q-31 0 -54.5 10.5t-41.5 25.5t-32.5 33.5t-29.5 33.5t-31 25.5t-36 10.5q-22 0 -38 -12t-28 -31t-20 -43t-13 -47h-145z" />
<glyph unicode="&#xf6;" horiz-adv-x="1274" d="M53 432q0 89 25 170t69 151t104.5 127t132 97t150.5 62t160 22q108 0 198.5 -33t156 -92.5t101.5 -143t36 -184.5q0 -90 -25 -172t-69.5 -152t-105.5 -127.5t-132 -97.5t-149 -62t-158 -22q-109 0 -200 33.5t-156 94t-101.5 144.5t-36.5 185zM256 440q0 -65 21.5 -119 t60.5 -92.5t92.5 -60t118.5 -21.5q80 0 157.5 34.5t139 95t99.5 143t38 178.5q0 64 -21.5 118t-60 92t-92 59.5t-117.5 21.5q-82 0 -160.5 -34.5t-139.5 -95t-98.5 -142.5t-37.5 -177zM508 1240l41 207h164l-41 -207h-164zM852 1240l39 207h164l-41 -207h-162z" />
<glyph unicode="&#xf7;" horiz-adv-x="1292" d="M123 504v160h1034v-160h-1034zM543 90v186h192v-186h-192zM543 891v186h192v-186h-192z" />
<glyph unicode="&#xf8;" horiz-adv-x="1274" d="M53 432q0 89 25 170t69 151t104.5 127t132 97t150.5 62t160 22q84 0 155.5 -19.5t131.5 -56.5l111 121l92 -76l-111 -121q54 -59 83.5 -134.5t29.5 -166.5q0 -90 -25 -172t-69.5 -152t-105.5 -127.5t-132 -97.5t-149 -62t-158 -22q-79 0 -147.5 18t-127.5 50l-110 -121 l-90 78l106 115q-60 60 -92.5 140t-32.5 177zM256 440q0 -109 55 -182l541 588q-34 20 -74.5 31.5t-85.5 11.5q-82 0 -160.5 -34.5t-139.5 -95t-98.5 -142.5t-37.5 -177zM401 182q31 -17 68.5 -26t79.5 -9q80 0 157.5 34.5t139 95t99.5 143t38 178.5q0 48 -11.5 89.5 t-33.5 76.5z" />
<glyph unicode="&#xf9;" horiz-adv-x="1221" d="M80 250q0 31 4 63.5t10 67.5l127 655h199l-119 -610q-12 -68 -12 -119q0 -34 7.5 -61t25.5 -46t48 -29.5t74 -10.5q78 0 146.5 34.5t123.5 91.5t92 130t52 149l92 471h199l-201 -1036h-194l24 121q4 18 8 35.5t9 31.5q4 16 10 31h-4q-22 -38 -61 -80.5t-92.5 -79 t-121 -60.5t-145.5 -24q-61 0 -115.5 14.5t-96 47.5t-65.5 85.5t-24 127.5zM484 1447h205l96 -260h-158z" />
<glyph unicode="&#xfa;" horiz-adv-x="1221" d="M80 250q0 31 4 63.5t10 67.5l127 655h199l-119 -610q-12 -68 -12 -119q0 -34 7.5 -61t25.5 -46t48 -29.5t74 -10.5q78 0 146.5 34.5t123.5 91.5t92 130t52 149l92 471h199l-201 -1036h-194l24 121q4 18 8 35.5t9 31.5q4 16 10 31h-4q-22 -38 -61 -80.5t-92.5 -79 t-121 -60.5t-145.5 -24q-61 0 -115.5 14.5t-96 47.5t-65.5 85.5t-24 127.5zM618 1187l201 260h223l-245 -260h-179z" />
<glyph unicode="&#xfb;" horiz-adv-x="1221" d="M80 250q0 31 4 63.5t10 67.5l127 655h199l-119 -610q-12 -68 -12 -119q0 -34 7.5 -61t25.5 -46t48 -29.5t74 -10.5q78 0 146.5 34.5t123.5 91.5t92 130t52 149l92 471h199l-201 -1036h-194l24 121q4 18 8 35.5t9 31.5q4 16 10 31h-4q-22 -38 -61 -80.5t-92.5 -79 t-121 -60.5t-145.5 -24q-61 0 -115.5 14.5t-96 47.5t-65.5 85.5t-24 127.5zM422 1187l231 260h207l129 -260h-168l-73 164h-5l-139 -164h-182z" />
<glyph unicode="&#xfc;" horiz-adv-x="1221" d="M80 250q0 31 4 63.5t10 67.5l127 655h199l-119 -610q-12 -68 -12 -119q0 -34 7.5 -61t25.5 -46t48 -29.5t74 -10.5q78 0 146.5 34.5t123.5 91.5t92 130t52 149l92 471h199l-201 -1036h-194l24 121q4 18 8 35.5t9 31.5q4 16 10 31h-4q-22 -38 -61 -80.5t-92.5 -79 t-121 -60.5t-145.5 -24q-61 0 -115.5 14.5t-96 47.5t-65.5 85.5t-24 127.5zM473 1240l41 207h164l-41 -207h-164zM817 1240l39 207h164l-41 -207h-162z" />
<glyph unicode="&#xfd;" horiz-adv-x="1042" d="M-188 -362l92 141q13 -11 30 -19q14 -7 35 -12.5t47 -5.5q66 0 121 39t99 110l75 123l-237 1022h207l139 -700q4 -20 7 -41.5t5 -39.5q3 -21 4 -42h2q9 20 19 40q8 17 19 38t22 41l389 704h223l-727 -1226q-72 -122 -165.5 -181t-192.5 -59q-48 0 -87 10.5t-67 23.5 q-33 15 -59 34zM532 1187l201 260h223l-245 -260h-179z" />
<glyph unicode="&#xfe;" horiz-adv-x="1227" d="M-43 -410l358 1856h197l-94 -481q-3 -17 -7 -31.5t-7 -25.5q-4 -13 -7 -25h4q25 36 61 68.5t80 56.5t96 38.5t110 14.5q92 0 164 -30t121.5 -85.5t75.5 -134.5t26 -176q0 -98 -22 -185t-61 -160t-92 -131.5t-116 -99.5t-132.5 -62.5t-140.5 -21.5q-49 0 -96.5 11.5 t-88 34t-73 56.5t-51.5 79h-4q0 -13 -2 -28q-2 -14 -4 -31.5t-6 -37.5l-92 -469h-197zM319 414q0 -55 13.5 -103.5t42 -85t72.5 -57.5t104 -21q67 0 134.5 32.5t122.5 93.5t89.5 149t34.5 199q0 62 -16 111t-46 83.5t-73.5 53t-98.5 18.5q-79 0 -148 -40t-120.5 -106 t-81 -151.5t-29.5 -175.5z" />
<glyph unicode="&#xff;" horiz-adv-x="1042" d="M-188 -362l92 141q13 -11 30 -19q14 -7 35 -12.5t47 -5.5q66 0 121 39t99 110l75 123l-237 1022h207l139 -700q4 -20 7 -41.5t5 -39.5q3 -21 4 -42h2q9 20 19 40q8 17 19 38t22 41l389 704h223l-727 -1226q-72 -122 -165.5 -181t-192.5 -59q-48 0 -87 10.5t-67 23.5 q-33 15 -59 34zM387 1240l41 207h164l-41 -207h-164zM731 1240l39 207h164l-41 -207h-162z" />
<glyph unicode="&#x152;" horiz-adv-x="1964" d="M109 598q0 118 32.5 228t90.5 206t138.5 175.5t176.5 136.5t203.5 88.5t220.5 31.5q45 0 83.5 -3t73.5 -6t67.5 -6t64.5 -3h735l-35 -176h-639l-88 -453h518l-35 -176h-518l-90 -465h674l-35 -176h-743q-53 0 -116.5 -9t-137.5 -9q-146 0 -264 46t-202 128t-129.5 195 t-45.5 247zM315 598q0 -95 31 -175t88.5 -138t140 -90.5t185.5 -32.5q31 0 57.5 2.5t46.5 5.5q23 4 43 8l211 1092q-18 3 -40 7q-19 2 -44.5 4.5t-56.5 2.5q-89 0 -172.5 -25t-157 -69.5t-135 -107.5t-105 -139.5t-68 -163.5t-24.5 -181z" />
<glyph unicode="&#x153;" horiz-adv-x="2040" d="M53 432q0 89 25 170t69 151t104.5 127t131.5 97t149.5 62t159.5 22q74 0 138.5 -17.5t117.5 -49.5t93.5 -77.5t66.5 -101.5h4q39 55 88.5 100.5t107.5 78t123.5 50t137.5 17.5q100 0 174.5 -28.5t123.5 -79.5t73 -121t24 -154q0 -32 -5.5 -65t-11.5 -61q-7 -33 -16 -63 h-753q-3 -17 -5 -32.5t-2 -30.5q0 -64 21.5 -115.5t60.5 -88t93.5 -56t119.5 -19.5q66 0 125.5 18.5t105.5 41.5q53 26 99 61l55 -157q-52 -38 -114 -68q-54 -26 -125.5 -47t-155.5 -21q-156 0 -265.5 67t-160.5 185h-4q-44 -58 -99 -104.5t-117 -79.5t-129.5 -50.5 t-135.5 -17.5q-109 0 -199.5 33.5t-155.5 94t-101 144.5t-36 185zM256 440q0 -65 21.5 -119t59.5 -92.5t91.5 -60t118.5 -21.5q81 0 158.5 34.5t139 95t99 143t37.5 178.5q0 64 -21.5 118t-59.5 92t-92 59.5t-118 21.5q-81 0 -159 -34.5t-139 -95t-98.5 -142.5t-37.5 -177z M1210 639h551q1 8 3 17q1 8 2 17.5t1 20.5q0 52 -15 91.5t-41.5 65.5t-63.5 39t-80 13q-58 0 -112 -18t-100.5 -52.5t-83.5 -83.5t-61 -110z" />
<glyph unicode="&#x178;" horiz-adv-x="1186" d="M164 1446h217l174 -475q11 -30 20 -62.5t17 -59.5q9 -32 16 -61h4q19 29 39 60q17 26 39 58t45 63l355 477h243l-651 -840l-119 -606h-201l121 612zM522 1599l41 207h164l-41 -207h-164zM866 1599l39 207h164l-41 -207h-162z" />
<glyph unicode="&#x2c6;" horiz-adv-x="1022" d="M82 1546l231 260h207l129 -260h-168l-73 164h-5l-139 -164h-182z" />
<glyph unicode="&#x2dc;" horiz-adv-x="1022" d="M39 1548q25 128 85 194t159 66q48 0 78 -21.5t52 -48t42.5 -48t50.5 -21.5q23 0 40 12.5t29 32t19.5 43t11.5 45.5h146q-25 -127 -84.5 -193.5t-159.5 -66.5q-31 0 -54.5 10.5t-41.5 25.5t-32.5 33.5t-29.5 33.5t-31 25.5t-36 10.5q-22 0 -38 -12t-28 -31t-20 -43 t-13 -47h-145z" />
<glyph unicode="&#x2000;" horiz-adv-x="913" />
<glyph unicode="&#x2001;" horiz-adv-x="1827" />
<glyph unicode="&#x2002;" horiz-adv-x="913" />
<glyph unicode="&#x2003;" horiz-adv-x="1827" />
<glyph unicode="&#x2004;" horiz-adv-x="609" />
<glyph unicode="&#x2005;" horiz-adv-x="456" />
<glyph unicode="&#x2006;" horiz-adv-x="304" />
<glyph unicode="&#x2007;" horiz-adv-x="304" />
<glyph unicode="&#x2008;" horiz-adv-x="228" />
<glyph unicode="&#x2009;" horiz-adv-x="365" />
<glyph unicode="&#x200a;" horiz-adv-x="101" />
<glyph unicode="&#x2010;" horiz-adv-x="956" d="M156 496l32 176h598l-32 -176h-598z" />
<glyph unicode="&#x2011;" horiz-adv-x="956" d="M156 496l32 176h598l-32 -176h-598z" />
<glyph unicode="&#x2012;" horiz-adv-x="956" d="M156 496l32 176h598l-32 -176h-598z" />
<glyph unicode="&#x2013;" horiz-adv-x="1436" d="M158 504l30 160h1078l-31 -160h-1077z" />
<glyph unicode="&#x2014;" horiz-adv-x="1845" d="M158 504l30 160h1487l-30 -160h-1487z" />
<glyph unicode="&#x2018;" horiz-adv-x="465" d="M182 1071l211 397h154l-164 -397h-201z" />
<glyph unicode="&#x2019;" horiz-adv-x="453" d="M188 1071l164 397h201l-211 -397h-154z" />
<glyph unicode="&#x201a;" horiz-adv-x="510" d="M-66 -184l164 399h201l-211 -399h-154z" />
<glyph unicode="&#x201c;" horiz-adv-x="754" d="M182 1071l211 397h154l-164 -397h-201zM471 1071l211 397h154l-164 -397h-201z" />
<glyph unicode="&#x201d;" horiz-adv-x="741" d="M188 1071l166 397h199l-209 -397h-156zM477 1071l166 397h199l-209 -397h-156z" />
<glyph unicode="&#x201e;" horiz-adv-x="799" d="M-66 -184l164 399h201l-209 -399h-156zM223 -184l166 399h199l-209 -399h-156z" />
<glyph unicode="&#x2022;" horiz-adv-x="838" d="M98 596q0 66 25 124t68 100.5t101 67.5t124 25q65 0 122.5 -25t100 -67.5t67.5 -100.5t25 -124t-25 -124t-67.5 -100.5t-100 -67.5t-122.5 -25q-66 0 -124 25t-101 67.5t-68 100.5t-25 124z" />
<glyph unicode="&#x2026;" horiz-adv-x="1569" d="M35 0l41 215h209l-43 -215h-207zM565 0l43 215h207l-41 -215h-209zM1098 0l41 215h209l-43 -215h-207z" />
<glyph unicode="&#x202f;" horiz-adv-x="365" />
<glyph unicode="&#x2039;" horiz-adv-x="709" d="M76 582l391 417h209l-410 -430l262 -411h-188z" />
<glyph unicode="&#x203a;" horiz-adv-x="709" d="M18 158l410 430l-260 411h188l265 -424l-394 -417h-209z" />
<glyph unicode="&#x205f;" horiz-adv-x="456" />
<glyph unicode="&#x20ac;" horiz-adv-x="1202" d="M57 528l25 129h113q6 77 24 148h-108l24 131h127q51 116 131 214t181 169t217.5 111t240.5 40q52 0 95.5 -5t75.5 -11q37 -7 67 -16l-82 -176q-21 6 -47 10q-22 4 -50.5 7t-60.5 3q-84 0 -164.5 -25t-151.5 -70.5t-129.5 -109t-99.5 -141.5h578l-51 -131h-580 q-11 -35 -18 -72t-11 -76h551l-49 -129h-489q8 -75 37 -140.5t79.5 -114.5t122 -77t164.5 -28q39 0 74.5 4t61.5 9q31 6 57 14l4 -189q-27 -9 -60 -16q-28 -6 -66 -10.5t-81 -4.5q-130 0 -238 40t-187.5 113t-127 175t-57.5 225h-142z" />
<glyph unicode="&#x2122;" horiz-adv-x="2042" d="M176 1309v137h778v-137h-311v-764h-156v764h-311zM1020 545l72 901h141l213 -471q6 -14 11 -29t9 -28q4 -15 9 -29h4q4 14 8 29q4 13 8.5 28t9.5 29l213 471h144l69 -901h-153l-43 538q-2 24 0 43q1 11 2 19h-4l-195 -434h-125l-194 434h-5q1 -8 2 -19q1 -9 1.5 -20.5 t-0.5 -22.5l-43 -538h-154z" />
<glyph unicode="&#x25fc;" horiz-adv-x="1035" d="M0 0v1035h1035v-1035h-1035z" />
</font>
</defs>
</svg>
