<?xml version="1.0" standalone="no"?>
<!DOCTYPE svg PUBLIC "-//W3C//DTD SVG 1.1//EN" "http://www.w3.org/Graphics/SVG/1.1/DTD/svg11.dtd" >
<svg xmlns="http://www.w3.org/2000/svg" xmlns:xlink="http://www.w3.org/1999/xlink" version="1.1">
<metadata></metadata>
<defs>
<font id="museo_sans500" horiz-adv-x="1681" >
<font-face units-per-em="2048" ascent="1638" descent="-410" />
<missing-glyph horiz-adv-x="526" />
<glyph unicode="&#xfb01;" horiz-adv-x="1198" d="M82 877v159h129v35q0 85 19.5 147t52 105t74 69t84.5 40t84.5 19t74.5 5q17 0 31 -1t24 -2q11 -2 21 -3v-170q-6 1 -14 2q-7 1 -16.5 1.5t-20.5 0.5q-29 0 -66 -7t-71 -29.5t-57 -65.5t-23 -115v-31h634v-1036h-198v877h-436v-877h-197v877h-129zM842 1243v203h200v-203 h-200z" />
<glyph unicode="&#xfb02;" horiz-adv-x="1231" d="M82 862v160h129v49q0 85 19.5 147t52 105t74 69t84.5 40t84.5 19t74.5 5q17 0 31 -1t24 -2q11 -2 21 -3v-170q-6 1 -14 2q-7 1 -16.5 1.5t-20.5 0.5q-29 0 -66 -7t-71 -29.5t-57 -65.5t-23 -115v-45h245v-160h-245v-862h-197v862h-129zM831 283v1163h199v-1129 q0 -47 8.5 -75.5t23.5 -44.5t35.5 -21.5t43.5 -5.5h13t11 1q5 0 10 1v-176q-8 -1 -19 -2q-9 -1 -21 -1.5t-25 -0.5q-28 0 -60 3.5t-63 14t-59 30.5t-49.5 52t-34.5 79t-13 112z" />
<glyph unicode="&#xfb03;" horiz-adv-x="1886" d="M82 877v159h129v35q0 85 19.5 147t52 105t74 69t84.5 40t84.5 19t74.5 5q17 0 31 -1t24 -2q11 -2 21 -3v-170q-6 1 -14 2q-7 1 -16.5 1.5t-20.5 0.5q-29 0 -66 -7t-71 -29.5t-57 -65.5t-23 -115v-31h491v35q0 85 19.5 147t52 105t74 69t84.5 40t84.5 19t74.5 5 q17 0 31 -1t24 -2q11 -2 21 -3v-170q-6 1 -14 2q-7 1 -16.5 1.5t-20.5 0.5q-29 0 -66 -7t-71 -29.5t-57 -65.5t-23 -115v-31h635v-1036h-199v877h-436v-877h-197v877h-491v-877h-197v877h-129zM1530 1243v203h201v-203h-201z" />
<glyph unicode="&#xfb04;" horiz-adv-x="1919" d="M82 877v159h129v35q0 85 19.5 147t52 105t74 69t84.5 40t84.5 19t74.5 5q17 0 31 -1t24 -2q11 -2 21 -3v-170q-6 1 -14 2q-7 1 -16.5 1.5t-20.5 0.5q-29 0 -66 -7t-71 -29.5t-57 -65.5t-23 -115v-31h491v35q0 85 19.5 147t52 105t74 69t84.5 40t84.5 19t74.5 5 q17 0 31 -1t24 -2q11 -2 21 -3v-170q-6 1 -14 2q-7 1 -16.5 1.5t-20.5 0.5q-29 0 -66 -7t-71 -29.5t-57 -65.5t-23 -115v-31h245v-159h-245v-877h-197v877h-491v-877h-197v877h-129zM1520 283v1163h198v-1129q0 -47 8.5 -75.5t23.5 -44.5t35.5 -21.5t43.5 -5.5h13t11 1 q5 0 11 1v-176q-9 -1 -20 -2q-9 -1 -21 -1.5t-25 -0.5q-28 0 -59.5 3.5t-62.5 14t-59 30.5t-49.5 52t-34.5 79t-13 112z" />
<glyph horiz-adv-x="0" />
<glyph unicode="&#xd;" horiz-adv-x="526" />
<glyph unicode=" "  horiz-adv-x="526" />
<glyph unicode="&#x09;" horiz-adv-x="526" />
<glyph unicode="&#xa0;" horiz-adv-x="526" />
<glyph unicode="!" horiz-adv-x="651" d="M223 1446h205l-12 -1049h-178zM225 0v199h203v-199h-203z" />
<glyph unicode="&#x22;" horiz-adv-x="700" d="M129 1085v385h156v-385h-156zM416 1085v385h155v-385h-155z" />
<glyph unicode="#" horiz-adv-x="1470" d="M90 391l25 152h268l59 344h-264l25 149h266l72 410h166l-72 -410h317l72 410h166l-72 -410h268l-26 -149h-266l-62 -344h266l-26 -152h-264l-70 -391h-166l68 391h-318l-67 -391h-166l67 391h-266zM549 543h317l62 344h-318z" />
<glyph unicode="$" horiz-adv-x="1159" d="M111 166l114 153q47 -44 104 -78q49 -29 116.5 -53t148.5 -24q51 0 96 14t79.5 41t54.5 67t20 91q0 56 -30.5 97.5t-80.5 75t-113.5 62t-130 58.5t-130 65t-113.5 81.5t-80.5 107.5t-30.5 143q0 75 27.5 141.5t78 119.5t120.5 88.5t155 47.5v193h146v-191q86 -6 151 -29 t110 -48q52 -29 89 -64l-92 -168q-41 35 -90 62q-43 23 -101 43t-127 20q-59 0 -107 -17t-82.5 -45.5t-53.5 -67t-19 -81.5q0 -54 30.5 -93t80.5 -70.5t113.5 -58.5t130 -56.5t130 -65t113.5 -83t80.5 -111.5t30.5 -150q0 -77 -26.5 -145.5t-76.5 -122.5t-122 -89.5 t-162 -45.5v-189h-146v189q-49 5 -92.5 15.5t-81.5 24.5t-70 30.5t-57 32.5q-61 38 -104 83z" />
<glyph unicode="%" horiz-adv-x="1559" d="M98 1167q0 62 24 117t66 96.5t98.5 65.5t121.5 24q64 0 121 -24t99 -65.5t66.5 -96.5t24.5 -117q0 -63 -24.5 -118t-66.5 -96.5t-99 -65t-121 -23.5q-65 0 -121.5 23.5t-98.5 65t-66 96.5t-24 118zM129 0l1106 1446h192l-1105 -1446h-193zM256 1167q0 -32 11.5 -60 t32 -48t48.5 -31.5t60 -11.5t59.5 11.5t48 31.5t32 48t11.5 60q0 31 -11.5 59t-32 49t-48 33.5t-59.5 12.5t-60 -12.5t-48.5 -33.5t-32 -49t-11.5 -59zM840 279q0 62 24 117t66 96.5t99 65.5t122 24q64 0 120.5 -24t99 -65.5t67 -96.5t24.5 -117q0 -63 -24.5 -118.5 t-67 -96.5t-99 -65t-120.5 -24q-65 0 -122 24t-99 65t-66 96.5t-24 118.5zM999 279q0 -32 11.5 -60t32 -48.5t48.5 -32t60 -11.5q31 0 59 11.5t48.5 32t32.5 48.5t12 60q0 31 -12 59t-32.5 49t-48.5 33t-59 12q-32 0 -60 -12t-48.5 -33t-32 -49t-11.5 -59z" />
<glyph unicode="&#x26;" horiz-adv-x="1401" d="M111 406q0 60 17 117.5t50 107t80 87.5t107 58v4q-54 22 -96 64q-18 18 -35 42t-30.5 55.5t-21.5 70.5t-8 86q0 90 33.5 159t92.5 116.5t140.5 72t177.5 24.5q30 0 61 -3.5t57 -7.5q30 -5 59 -11l-52 -162l-36 6q-16 2 -35 4t-37 2q-54 0 -100.5 -14.5t-81 -42.5 t-54.5 -69.5t-20 -94.5q0 -34 10 -73.5t39 -73.5t81 -57t136 -23h268v197h199v-197h193v-176h-193v-193q0 -120 -34.5 -214.5t-99 -159t-157.5 -98.5t-209 -34q-113 0 -205.5 33t-158 91t-101.5 136.5t-36 170.5zM317 416q0 -53 21 -99t59 -80.5t92.5 -54.5t122.5 -20 q69 0 125 19t95 59t60 102t21 147v185h-276q-155 0 -237.5 -68t-82.5 -190z" />
<glyph unicode="'" horiz-adv-x="416" d="M129 1085v385h158v-385h-158z" />
<glyph unicode="(" horiz-adv-x="618" d="M150 696q0 223 61.5 425t175.5 384h174q-112 -189 -171.5 -391t-59.5 -420q0 -230 58 -454t173 -435h-174q-55 92 -99 196.5t-74.5 218t-47 233.5t-16.5 243z" />
<glyph unicode=")" horiz-adv-x="618" d="M57 -195q116 211 174 435t58 454q0 218 -59.5 420t-172.5 391h174q115 -182 176.5 -384t61.5 -425q0 -123 -16.5 -243t-47 -233.5t-75 -218t-99.5 -196.5h-174z" />
<glyph unicode="*" horiz-adv-x="956" d="M74 1085l53 172l272 -102l-14 291h186l-16 -291l274 102l56 -172l-281 -75v-4l180 -226l-145 -106l-158 241h-4l-160 -241l-147 106l182 226v4z" />
<glyph unicode="+" horiz-adv-x="1399" d="M158 504v160h458v503h168v-503h457v-160h-457v-504h-168v504h-458z" />
<glyph unicode="," horiz-adv-x="522" d="M55 -207l127 422h203l-172 -422h-158z" />
<glyph unicode="-" horiz-adv-x="967" d="M184 496v176h598v-176h-598z" />
<glyph unicode="." horiz-adv-x="520" d="M156 0v211h209v-211h-209z" />
<glyph unicode="/" horiz-adv-x="827" d="M74 -86l520 1610h176l-520 -1610h-176z" />
<glyph unicode="0" horiz-adv-x="1280" d="M129 725q0 156 25.5 292t85 236.5t157.5 158.5t242 58q145 0 243 -58t158 -158.5t85.5 -236.5t25.5 -292q0 -157 -25.5 -293.5t-85.5 -238t-158 -160t-243 -58.5q-144 0 -242 58.5t-157.5 160t-85 238t-25.5 293.5zM336 725q0 -118 14 -221t49 -179t93 -119.5t147 -43.5 t148 43.5t94 119.5t49 179t14 221q0 117 -14 219t-49 177.5t-94 119t-148 43.5t-147 -43.5t-93 -119t-49 -177.5t-14 -219z" />
<glyph unicode="1" horiz-adv-x="1001" d="M104 1110l347 336h180v-1270h315v-176h-831v176h319v934v33t1 29q0 15 1 28h-4q-5 -10 -15 -23q-8 -11 -21.5 -26.5t-33.5 -34.5l-135 -133z" />
<glyph unicode="2" horiz-adv-x="1171" d="M113 111q0 97 30.5 174t80 141t113.5 116.5t130 99t130 91t113.5 91.5t80 99.5t30.5 116.5q0 54 -19.5 98t-54 75.5t-82 49t-104.5 17.5q-36 0 -67.5 -8t-59 -21t-50.5 -29.5t-41 -33.5q-44 -40 -75 -92l-149 100q42 76 106 137q27 25 62.5 50t79 44t95.5 31t113 12 q100 0 184 -29.5t144.5 -84t94.5 -131t34 -170.5q0 -89 -29.5 -160.5t-78 -130.5t-111 -108.5t-127 -94.5t-127 -87.5t-111.5 -88t-79 -96.5t-31 -113h717v-176h-932q-5 29 -7.5 57t-2.5 54z" />
<glyph unicode="3" horiz-adv-x="1161" d="M82 172l111 154q43 -45 97 -79q46 -30 110 -54.5t143 -24.5q61 0 114.5 19.5t93.5 54t63.5 83t23.5 107.5q0 67 -27.5 117t-74 83t-107 49.5t-127.5 16.5h-101l-47 109l316 371q17 20 33.5 37.5t29.5 30.5q15 15 27 26v4q-14 -2 -32 -3q-32 -3 -91 -3h-490v176h865v-129 l-394 -453q72 -8 147 -35.5t136.5 -78.5t101 -128t39.5 -182q0 -93 -35 -177t-99 -148t-155 -102t-202 -38q-56 0 -105.5 8.5t-92.5 22t-80 31.5t-67 36q-70 43 -124 99z" />
<glyph unicode="4" horiz-adv-x="1241" d="M63 387v127l668 932h232v-887h196v-172h-196v-387h-199v387h-701zM287 559h477v526q0 26 1 51t3 46q2 24 4 47h-4q-10 -20 -21 -40q-10 -17 -23.5 -38.5t-27.5 -40.5l-409 -547v-4z" />
<glyph unicode="5" horiz-adv-x="1153" d="M98 176l113 148q34 -44 82 -78q20 -15 45 -29t54.5 -25t63.5 -17.5t72 -6.5q64 0 121.5 21t101 59.5t69.5 92.5t26 120q0 65 -25.5 119.5t-70 94t-104.5 61.5t-130 22q-54 0 -98.5 -11t-76.5 -25q-38 -16 -69 -36l-116 43l71 717h729v-176h-553l-34 -305q-1 -17 -2.5 -30 t-3.5 -24q-3 -12 -5 -22h4q24 12 53 22q25 8 59 15.5t75 7.5q114 0 207 -37t159 -101t102 -150t36 -183q0 -105 -39 -194t-107.5 -154.5t-162 -102.5t-203.5 -37q-56 0 -104.5 8.5t-90 22.5t-76 32t-62.5 37q-65 44 -110 101z" />
<glyph unicode="6" horiz-adv-x="1227" d="M121 657q0 93 17 189t52 186.5t88.5 170t125.5 139t164 94t204 34.5q64 0 115.5 -9.5t88.5 -20.5q43 -13 77 -29l-66 -174q-27 12 -60 23q-28 9 -66 16.5t-81 7.5q-100 0 -176 -42t-129.5 -110.5t-85 -155.5t-43.5 -177h4q23 31 58 56t77.5 43t89.5 28t95 10 q103 0 187 -37t144 -101t92.5 -151.5t32.5 -187.5q0 -107 -34.5 -196t-96 -153t-147 -99.5t-186.5 -35.5q-116 0 -215 49t-171.5 138t-113.5 215t-41 280zM334 561q0 -71 25 -142t68.5 -128t103 -93t128.5 -36q62 0 111.5 23t84 62.5t53 94t18.5 117.5q0 66 -20.5 122 t-59 96.5t-93.5 63.5t-124 23q-62 0 -115.5 -17t-93.5 -45t-63 -65t-23 -76z" />
<glyph unicode="7" horiz-adv-x="1083" d="M72 1270v176h966v-139l-653 -1307h-209l563 1139q15 31 30 55.5t27 41.5q14 20 27 36v4q-10 -2 -25 -3q-26 -3 -81 -3h-645z" />
<glyph unicode="8" horiz-adv-x="1243" d="M117 418q0 83 30.5 149.5t70.5 115.5t77.5 79.5t52.5 40.5q-35 25 -65 54.5t-51.5 65t-33.5 77.5t-12 92q0 72 27.5 140t83.5 121t141 85t199 32q100 0 184 -27t144 -77.5t93.5 -122t33.5 -160.5q0 -48 -11.5 -93t-29 -85t-38.5 -74.5t-40.5 -60t-33.5 -42t-19 -21.5 q41 -26 77 -56t62.5 -67.5t41.5 -83t15 -101.5q0 -84 -35 -161t-99.5 -135.5t-156 -93t-204.5 -34.5q-108 0 -200.5 32.5t-160 91t-105.5 140t-38 179.5zM324 430q0 -62 24.5 -112.5t66 -86t95 -54.5t111.5 -19q57 0 108.5 17.5t91 50t63 78.5t23.5 102q0 58 -36.5 100.5 t-95 77.5t-131.5 66.5t-146 66.5q-18 -12 -47 -36.5t-57.5 -60.5t-49 -84t-20.5 -106zM387 1087q0 -60 33 -103t86.5 -77t121.5 -62.5t138 -58.5q8 9 29 33t42.5 61.5t38.5 85.5t17 105q0 50 -19 90t-53.5 68.5t-81.5 43.5t-104 15q-60 0 -106.5 -16t-78 -43t-47.5 -63.5 t-16 -78.5z" />
<glyph unicode="9" horiz-adv-x="1227" d="M100 987q0 107 34.5 196t96.5 152.5t147.5 99t186.5 35.5q115 0 214 -48.5t171.5 -137.5t114 -215t41.5 -281q0 -93 -17 -189t-52 -186.5t-88.5 -170t-125.5 -139t-164 -94t-204 -34.5q-65 0 -116.5 9.5t-88.5 20.5q-43 13 -76 30l66 176q27 -14 60 -25q28 -9 65.5 -16.5 t80.5 -7.5q67 0 123 19.5t101.5 53.5t81.5 80t62 100t42.5 113t24.5 119h-4q-23 -31 -57.5 -56t-77 -42.5t-90 -27t-95.5 -9.5q-103 0 -187 36.5t-144 100.5t-93 150.5t-33 187.5zM301 987q0 -66 20 -122t58.5 -96.5t93.5 -63.5t125 -23q61 0 115 17t94 45.5t63 65t23 75.5 q0 70 -25 141.5t-68.5 128.5t-103.5 93t-129 36q-63 0 -112.5 -23t-83.5 -62.5t-52 -94t-18 -117.5z" />
<glyph unicode=":" horiz-adv-x="598" d="M195 0v211h208v-211h-208zM195 825v211h208v-211h-208z" />
<glyph unicode=";" horiz-adv-x="600" d="M96 -207l109 422h205l-154 -422h-160zM207 825v211h209v-211h-209z" />
<glyph unicode="&#x3c;" horiz-adv-x="1143" d="M68 516v135l954 426v-182l-733 -309v-4l733 -310v-182z" />
<glyph unicode="=" horiz-adv-x="1370" d="M197 309v160h977v-160h-977zM197 696v160h977v-160h-977z" />
<glyph unicode="&#x3e;" horiz-adv-x="1143" d="M121 90v182l731 310v4l-731 309v182l954 -426v-135z" />
<glyph unicode="?" horiz-adv-x="1001" d="M66 1343q40 37 95 66q47 25 112.5 45.5t150.5 20.5q87 0 164.5 -26.5t136 -75.5t93 -118.5t34.5 -154.5t-27 -146.5t-67 -109.5t-87.5 -88t-87.5 -80.5t-67 -87t-27 -107.5v-84h-194v97q0 78 26 135.5t64.5 103.5t83.5 85t83.5 78.5t64.5 84.5t26 104q0 43 -17.5 80 t-48.5 64.5t-73.5 43t-93.5 15.5q-49 0 -91 -13.5t-74 -29.5q-37 -19 -69 -43zM291 0v199h203v-199h-203z" />
<glyph unicode="@" d="M121 494q0 105 26.5 202t74.5 181t116 153t151 118t179 76t200 27q148 0 250 -34.5t165 -92t90.5 -132.5t27.5 -156v-580h147v-150h-559q-96 0 -174.5 31.5t-134 85t-85.5 123.5t-30 148q0 76 30 145t85.5 122t133.5 84.5t175 31.5h221q-2 43 -24 81.5t-64 67t-103 45 t-140 16.5q-80 0 -152 -22t-134.5 -61t-113 -94t-86 -120.5t-55 -140.5t-19.5 -155q0 -122 42 -229t118.5 -186.5t183.5 -126t238 -46.5v-162q-172 0 -315.5 58.5t-246.5 160t-160.5 238t-57.5 293.5zM766 496q0 -50 17.5 -94t49 -76.5t75 -51t96.5 -18.5h206v483h-202 q-54 0 -98.5 -19.5t-76.5 -52.5t-49.5 -77t-17.5 -94z" />
<glyph unicode="A" horiz-adv-x="1286" d="M16 0l521 1446h213l520 -1446h-211l-146 416h-544l-144 -416h-209zM422 584h438l-160 458q-9 28 -19 63t-18 67q-10 37 -18 75h-4q-10 -38 -20 -75q-8 -32 -18 -67t-19 -63z" />
<glyph unicode="B" horiz-adv-x="1298" d="M197 0v1446h505q91 0 168.5 -25t133 -72t87 -115.5t31.5 -156.5q0 -106 -48 -187t-132 -124v-4q57 -17 101.5 -51t74.5 -80.5t46 -102.5t16 -116q0 -102 -37 -179.5t-100.5 -129t-148 -77.5t-179.5 -26h-518zM399 176h326q58 0 104.5 17.5t78 50t48.5 77.5t17 101 q0 55 -18 100.5t-50.5 78.5t-78.5 51t-103 18h-324v-494zM399 838h303q49 0 88.5 16.5t67.5 45.5t42.5 69t14.5 88t-14 87t-42 67t-68.5 43.5t-92.5 15.5h-299v-432z" />
<glyph unicode="C" horiz-adv-x="1479" d="M98 731q0 105 25.5 200.5t72 177.5t113 149t148 114t177 72.5t200.5 25.5q65 0 122.5 -8t106.5 -21.5t90 -30.5t74 -35q77 -42 133 -95l-100 -152q-51 44 -115 79q-27 15 -60.5 29t-71.5 25t-81 18t-90 7q-122 0 -220.5 -43t-168.5 -118t-108 -176t-38 -216 q0 -116 38.5 -219.5t109 -181.5t169.5 -124t220 -46q51 0 97 8t87 21.5t76.5 30t64.5 34.5q68 41 121 94l109 -145q-61 -65 -145 -115q-36 -22 -80 -42.5t-96 -36.5t-112 -26t-128 -10q-163 0 -299 58.5t-234 160.5t-152.5 240t-54.5 297z" />
<glyph unicode="D" horiz-adv-x="1516" d="M197 0v1446h479q166 0 301 -48.5t231 -140.5t148.5 -226.5t52.5 -305.5q0 -172 -52.5 -307t-148.5 -228t-231 -141.5t-301 -48.5h-479zM399 176h263q122 0 221 35.5t169.5 105.5t109 172t38.5 236q0 133 -38.5 234.5t-109 170.5t-170 104.5t-220.5 35.5h-263v-1094z" />
<glyph unicode="E" horiz-adv-x="1174" d="M197 0v1446h839v-176h-637v-453h519v-176h-519v-465h672v-176h-874z" />
<glyph unicode="F" horiz-adv-x="1067" d="M197 0v1446h796v-176h-594v-475h506v-177h-506v-618h-202z" />
<glyph unicode="G" horiz-adv-x="1556" d="M100 725q0 104 25.5 200t72 179t113 150.5t148.5 115.5t178 74t201 26q65 0 122 -7.5t106.5 -20t90.5 -28t74 -31.5q77 -39 133 -87l-102 -151q-50 39 -112 70q-54 26 -128.5 48.5t-167.5 22.5q-128 0 -229 -43.5t-171 -119t-107.5 -177t-37.5 -217.5q0 -126 40.5 -230.5 t112 -179t169 -116t211.5 -41.5q47 0 89.5 7.5t80 20.5t69.5 29t59 33q62 40 111 90v209h-235v176h420v-727h-179v90v22.5t1 20.5q1 11 2 19h-5q-48 -50 -114 -89q-57 -33 -139.5 -60.5t-190.5 -27.5q-97 0 -187.5 25t-169.5 71.5t-144.5 113t-112 149.5t-72 182t-25.5 209z " />
<glyph unicode="H" horiz-adv-x="1548" d="M197 0v1446h202v-635h750v635h203v-1446h-203v635h-750v-635h-202z" />
<glyph unicode="I" horiz-adv-x="596" d="M197 0v1446h202v-1446h-202z" />
<glyph unicode="J" horiz-adv-x="1100" d="M61 416v71h201v-61q0 -74 20 -124.5t52 -81.5t73.5 -44.5t84.5 -13.5q42 0 82.5 13t72 43t51 79t19.5 121v852h-365v176h568v-1030q0 -118 -37.5 -201.5t-98.5 -137t-138.5 -78t-156.5 -24.5t-155.5 25t-137 78.5t-98 137t-37.5 200.5z" />
<glyph unicode="K" horiz-adv-x="1276" d="M197 0v1446h202v-608h215l365 608h223l-420 -686v-4l447 -756h-230l-385 664h-215v-664h-202z" />
<glyph unicode="L" horiz-adv-x="1083" d="M197 0v1446h202v-1270h648v-176h-850z" />
<glyph unicode="M" horiz-adv-x="1774" d="M152 0l116 1446h213l332 -782q12 -30 24.5 -64.5t23.5 -63.5q12 -34 24 -67h4q12 33 24 67q11 29 23 63.5t25 64.5l331 782h213l117 -1446h-201l-71 911q-3 33 -3.5 70t-0.5 69q0 37 2 74h-5q-13 -39 -26 -77q-11 -32 -24.5 -69t-26.5 -67l-289 -651h-180l-287 651 q-13 29 -26.5 66.5t-24.5 71.5q-13 39 -27 79h-4v-76q0 -32 -1 -70t-3 -71l-70 -911h-202z" />
<glyph unicode="N" horiz-adv-x="1550" d="M197 0v1446h200l643 -940q20 -29 41.5 -65.5t39.5 -68.5q20 -38 40 -75h4q-4 37 -7 74q-3 32 -5 68.5t-2 66.5v940h203v-1446h-199l-645 938q-20 30 -41 66.5t-39 68.5q-21 38 -41 76h-4q3 -38 7 -75q2 -32 4.5 -68.5t2.5 -67.5v-938h-202z" />
<glyph unicode="O" d="M98 733q0 156 57.5 290.5t158 234t236 156t292.5 56.5t292 -56.5t235 -156t157 -234t57 -290.5q0 -107 -26 -204.5t-73.5 -181.5t-114.5 -152.5t-149 -117.5t-178 -75.5t-200 -26.5q-105 0 -200.5 26.5t-178 75.5t-150 117.5t-115.5 152.5t-74 181.5t-26 204.5zM307 733 q0 -122 42 -226.5t115 -181t170 -120t208 -43.5t208 43.5t169 120t113.5 181t41.5 226.5q0 118 -41.5 219.5t-113.5 175.5t-169 116t-208 42t-208 -42t-170 -116t-115 -175.5t-42 -219.5z" />
<glyph unicode="P" horiz-adv-x="1243" d="M197 0v1446h528q99 0 182.5 -32t144 -91.5t94.5 -143t34 -186.5t-34 -187.5t-94.5 -144.5t-144 -93t-182.5 -33h-326v-535h-202zM399 711h293q65 0 117 19.5t88.5 56t56 89t19.5 117.5t-19.5 116.5t-55.5 87t-88 54.5t-116 19h-295v-559z" />
<glyph unicode="Q" horiz-adv-x="1706" d="M100 731q0 157 57 292t157 234.5t235.5 156t292.5 56.5q105 0 201 -25.5t178.5 -73t149.5 -114.5t114.5 -149t73.5 -177.5t26 -199.5q0 -137 -45.5 -259t-124.5 -218l172 -164l-119 -127l-168 168q-94 -75 -209.5 -115.5t-248.5 -40.5q-105 0 -200.5 26.5t-178 75.5 t-149.5 117.5t-114.5 152.5t-73.5 181.5t-26 202.5zM309 731q0 -121 41 -225t113 -180.5t169.5 -120t209.5 -43.5q40 0 82.5 7t83 20.5t78 33.5t69.5 45l-170 166l119 127l166 -168q49 68 77.5 155t28.5 183q0 120 -41 221.5t-113 176t-169.5 116t-210.5 41.5 q-112 0 -209.5 -41.5t-169.5 -116t-113 -176t-41 -221.5z" />
<glyph unicode="R" horiz-adv-x="1313" d="M197 0v1446h442q57 0 98.5 -2t73 -6.5t54.5 -10.5t44 -14q55 -21 100.5 -58t77 -87t49 -112.5t17.5 -133.5q0 -69 -18.5 -131.5t-52.5 -114t-82 -89t-107 -56.5v-4q5 -5 11 -15q5 -8 13 -21t19 -30l307 -561h-229l-305 575h-310v-575h-202zM399 752h291q59 0 106.5 18 t80.5 52t51 82.5t18 109.5q0 80 -29.5 136t-85.5 87q-14 7 -31 13.5t-40 10.5t-54 6.5t-73 2.5h-234v-518z" />
<glyph unicode="S" horiz-adv-x="1118" d="M86 166l115 153q46 -44 103 -78q49 -29 116.5 -53t148.5 -24q51 0 96.5 14t79.5 41t54 67t20 91q0 59 -30 101.5t-79.5 76t-112 61.5t-128.5 57t-128.5 63t-112 80t-79.5 107t-30 144q0 84 34.5 157.5t96.5 128t148 86t188 31.5q101 0 177 -23t128 -50q61 -32 104 -72 l-92 -168q-41 35 -90 62q-42 23 -100 43t-127 20q-58 0 -106 -17t-82.5 -45.5t-54 -67t-19.5 -81.5q0 -56 30 -96t79.5 -71.5t112 -58t128.5 -55t128.5 -62.5t112 -81.5t79.5 -111.5t30 -152q0 -84 -31.5 -158t-90.5 -129.5t-144 -88t-193 -32.5q-58 0 -109 8t-95.5 21.5 t-82.5 30.5t-68 35q-71 42 -124 96z" />
<glyph unicode="T" horiz-adv-x="1214" d="M10 1270v176h1194v-176h-495v-1270h-203v1270h-496z" />
<glyph unicode="U" horiz-adv-x="1491" d="M176 512v934h203v-934q0 -83 26 -148t73.5 -110t114.5 -68.5t150 -23.5q84 0 152 23.5t116.5 69t74.5 111.5t26 150v930h203v-934q0 -121 -41.5 -220t-116.5 -169.5t-180 -109t-232 -38.5q-126 0 -231 38.5t-180 109t-116.5 169.5t-41.5 220z" />
<glyph unicode="V" horiz-adv-x="1294" d="M12 1446h219l359 -1022q10 -29 19.5 -64t17.5 -65l18 -70h4q8 35 18 70q8 30 17.5 65t20.5 64l362 1022h215l-532 -1446h-203z" />
<glyph unicode="W" horiz-adv-x="1942" d="M68 1446h208l256 -1061q7 -29 12.5 -56.5t8.5 -49.5q4 -26 6 -48h4q4 21 8 47q4 21 9.5 49t13.5 58l283 1061h180l282 -1061q8 -30 13.5 -58t9.5 -49q4 -26 8 -47h4q2 22 6 48q3 22 8 49.5t13 56.5l266 1061h209l-379 -1446h-235l-250 938q-10 35 -17.5 71t-13.5 66 q-7 35 -12 68h-4q-6 -33 -13 -68q-6 -30 -13.5 -66t-16.5 -71l-250 -938h-236z" />
<glyph unicode="X" horiz-adv-x="1253" d="M45 0l457 745l-428 701h233l228 -391q17 -29 33.5 -59.5t29.5 -55.5q15 -29 29 -57h4q12 27 26 56q12 25 28 55.5t34 60.5l227 391h234l-428 -701l456 -745h-229l-262 444q-18 31 -34.5 61t-29.5 53q-15 27 -28 52h-4q-11 -26 -25 -53q-12 -24 -28 -53.5t-33 -59.5 l-263 -444h-227z" />
<glyph unicode="Y" horiz-adv-x="1204" d="M16 1446h230l268 -475q17 -30 33 -62.5t28 -59.5q14 -32 27 -61h4q13 29 27 61q12 26 28 58.5t33 63.5l264 475h230l-483 -834v-612h-203v612z" />
<glyph unicode="Z" horiz-adv-x="1243" d="M84 0v135l696 1004q21 31 40 55.5t33 41.5q17 20 32 36v4q-12 -2 -28 -3q-29 -3 -81 -3h-655v176h1016v-133l-697 -1006q-21 -30 -40 -54.5t-33 -41.5q-17 -20 -31 -35v-4q12 1 28 2q14 1 34 1.5t46 0.5h701v-176h-1061z" />
<glyph unicode="[" horiz-adv-x="616" d="M207 -195v1700h338v-149h-164v-1399h164v-152h-338z" />
<glyph unicode="\" horiz-adv-x="827" d="M57 1524h176l521 -1610h-176z" />
<glyph unicode="]" horiz-adv-x="618" d="M72 -43h166v1399h-166v149h340v-1700h-340v152z" />
<glyph unicode="^" horiz-adv-x="1255" d="M141 506l410 940h129l407 -940h-178l-295 721l-292 -721h-181z" />
<glyph unicode="_" horiz-adv-x="1217" d="M57 0h1102v-160h-1102v160z" />
<glyph unicode="`" horiz-adv-x="1022" d="M330 1806h213l149 -260h-168z" />
<glyph unicode="a" horiz-adv-x="1081" d="M72 291q0 85 34 145t89 99.5t124 62t138 33.5t132.5 13.5t106.5 2.5h45v19q0 64 -17 107.5t-47.5 70t-72 38t-90.5 11.5q-60 0 -113 -15.5t-92 -34.5q-46 -22 -84 -50l-82 145q46 34 105 61q51 23 121.5 42.5t160.5 19.5q198 0 304 -104t106 -302v-655h-184v98 q0 17 0.5 32.5t1.5 26.5q1 13 2 23h-4q-27 -58 -73 -103q-20 -19 -45 -37.5t-57.5 -32.5t-71.5 -23t-85 -9q-67 0 -130 20.5t-112.5 60t-79.5 98.5t-30 137zM272 301q0 -32 12.5 -61.5t37 -53t61 -37.5t84.5 -14q63 0 114 30t87 77.5t55.5 106t19.5 116.5v33h-51 q-37 0 -82.5 -1.5t-92.5 -8t-91 -19t-78 -34.5t-55 -54.5t-21 -79.5z" />
<glyph unicode="b" horiz-adv-x="1229" d="M156 0v1446h198v-473q0 -20 -0.5 -35.5t-1.5 -27.5q-1 -14 -2 -25h4q27 49 74 88q19 16 45 32t58 28.5t70.5 20t84.5 7.5q105 0 189 -39.5t143 -111t91 -171.5t32 -221q0 -124 -35.5 -224t-98 -171t-149 -109.5t-188.5 -38.5q-87 0 -149 27.5t-101 61.5q-47 40 -76 90h-4 q1 -10 2 -22q1 -11 1.5 -25t0.5 -31v-76h-188zM348 514q0 -69 18 -135.5t54.5 -118t91.5 -83.5t129 -32q61 0 115.5 25t95.5 72.5t64.5 116.5t23.5 157q0 84 -21.5 152.5t-60.5 117t-93 75t-118 26.5q-58 0 -112 -21t-95.5 -66.5t-66.5 -116t-25 -169.5z" />
<glyph unicode="c" horiz-adv-x="1120" d="M82 518q0 115 41 214.5t114.5 172.5t175.5 114.5t224 41.5q98 0 170.5 -23.5t121.5 -52.5q57 -33 97 -76l-94 -139q-34 33 -78 59q-38 23 -90.5 41.5t-118.5 18.5q-78 0 -144 -27.5t-114 -77t-75 -117t-27 -147.5q0 -79 27 -147t75.5 -118.5t115.5 -79t148 -28.5 q72 0 131 22t101 48q49 31 88 70l80 -146q-44 -47 -106 -83q-26 -16 -58.5 -31t-71 -26.5t-83 -18.5t-95.5 -7q-122 0 -224 41t-175.5 114t-114.5 172t-41 216z" />
<glyph unicode="d" horiz-adv-x="1231" d="M88 518q0 124 34.5 224t97 171t148.5 109.5t189 38.5q90 0 151 -25.5t99 -56.5q44 -36 70 -82h4q-1 9 -2 20q-1 10 -1.5 22.5t-0.5 27.5v479h198v-1446h-188v98v28t1 22q0 11 1 20h-4q-27 -55 -74 -97q-20 -18 -46 -35.5t-59 -31t-73 -21.5t-88 -8q-105 0 -190 39.5 t-144 111.5t-91 172t-32 220zM291 518q0 -84 21.5 -152.5t60.5 -117t92.5 -75t118.5 -26.5q57 0 111 21t96 66.5t67 116t25 169.5q0 69 -18 135.5t-55 118.5t-92 83.5t-128 31.5q-62 0 -116 -25t-95 -72t-64.5 -116.5t-23.5 -157.5z" />
<glyph unicode="e" horiz-adv-x="1137" d="M84 518q0 124 39.5 224t109 171t164 109.5t205.5 38.5q110 0 194 -38t140.5 -104t85.5 -154.5t29 -189.5q0 -10 -1 -24.5t-3 -28.5q-2 -16 -3 -33h-755q4 -85 34 -149t78.5 -107t111.5 -64.5t132 -21.5q67 0 122.5 18.5t97.5 41.5q48 26 87 61l82 -145q-47 -41 -108 -74 q-52 -28 -125.5 -51t-167.5 -23q-122 0 -223 41.5t-173.5 114.5t-112.5 172.5t-40 214.5zM295 639h553q-2 67 -23 116.5t-54.5 82.5t-78 49t-94.5 16q-57 0 -107.5 -17.5t-90 -51t-67 -82.5t-38.5 -113z" />
<glyph unicode="f" horiz-adv-x="688" d="M82 862v160h129v49q0 85 19.5 147t52 105t74 69t84.5 40t84.5 19t74.5 5q17 0 31 -1t24 -2q11 -2 21 -3v-170q-6 1 -14 2q-7 1 -16.5 1.5t-20.5 0.5q-29 0 -66 -7t-71 -29.5t-57 -65.5t-23 -115v-45h245v-160h-245v-862h-197v862h-129z" />
<glyph unicode="g" horiz-adv-x="1214" d="M88 543q0 111 30.5 206t88.5 164.5t142 108.5t192 39q47 0 86 -6.5t70.5 -17.5t56 -25t43.5 -28q44 -34 69 -77h4q-1 5 -1 10q-1 5 -1 10.5v12.5v96h191v-993q0 -128 -44.5 -218t-118 -146.5t-167.5 -82.5t-192 -26q-94 0 -186.5 24t-168.5 62l66 156q38 -20 84 -35 q39 -14 90 -24.5t110 -10.5q68 0 127.5 16t104 50.5t70.5 90t26 134.5v76v23.5t1 20.5q0 11 1 21h-4q-46 -77 -120.5 -119.5t-186.5 -42.5q-108 0 -194 41t-146 112.5t-91.5 168.5t-31.5 209zM289 547q0 -81 20.5 -147.5t59.5 -114.5t95 -74.5t126 -26.5q54 0 103.5 17.5 t87.5 59t60.5 110t22.5 170.5q0 101 -23 168t-63 107t-93 56.5t-114 16.5q-68 0 -120.5 -24t-88.5 -68t-54.5 -107.5t-18.5 -142.5z" />
<glyph unicode="h" horiz-adv-x="1235" d="M156 0v1446h198v-531q0 -19 -0.5 -34.5t-1.5 -26.5q-1 -13 -2 -25h4q17 38 50 79t81 75t111 56t141 22q184 0 270.5 -99t86.5 -298v-664h-199v618q0 55 -7.5 102.5t-29 82.5t-60 55.5t-100.5 20.5q-58 0 -110.5 -19t-95 -53t-74 -81t-47.5 -103q-10 -31 -13.5 -65.5 t-3.5 -72.5v-485h-198z" />
<glyph unicode="i" horiz-adv-x="510" d="M154 1243v203h200v-203h-200zM156 0v1036h198v-1036h-198z" />
<glyph unicode="j" horiz-adv-x="508" d="M-113 -248q6 -1 13 -1q6 -1 14 -1h18q28 0 67 7t73.5 30.5t59 68.5t24.5 121v1059h196v-1071q0 -87 -20.5 -149t-53.5 -105t-75 -69t-86 -40.5t-86 -19t-74 -4.5q-17 0 -29.5 0.5t-21.5 1.5q-11 1 -19 2v170zM154 1243v203h200v-203h-200z" />
<glyph unicode="k" horiz-adv-x="1077" d="M156 0v1446h198v-791h146l282 381h226l-344 -456v-5l383 -575h-232l-311 487h-150v-487h-198z" />
<glyph unicode="l" horiz-adv-x="543" d="M143 283v1163h199v-1129q0 -47 8.5 -75.5t23.5 -44.5t35.5 -21.5t43.5 -5.5h13t11 1q5 0 10 1v-176q-8 -1 -19 -2q-9 -1 -21 -1.5t-25 -0.5q-28 0 -60 3.5t-63 14t-59 30.5t-49.5 52t-34.5 79t-13 112z" />
<glyph unicode="m" horiz-adv-x="1872" d="M156 0v1036h192v-137q0 -16 -0.5 -29t-1.5 -24q-1 -12 -2 -23h4q18 45 53.5 88t82.5 76.5t103.5 53.5t117.5 20q131 0 208 -59t103 -177h4q21 47 58 89.5t85 75t105.5 52t120.5 19.5q175 0 258.5 -99.5t83.5 -297.5v-664h-199v621q0 54 -7 101.5t-27 83t-56 55.5t-94 20 q-55 0 -102 -21.5t-84.5 -58t-64 -84.5t-40.5 -101q-15 -65 -15 -143v-473h-198v621q0 51 -6 98t-24.5 83t-54 57.5t-95.5 21.5q-57 0 -105 -22t-86 -59t-64.5 -87t-41.5 -105q-8 -31 -10.5 -65.5t-2.5 -69.5v-473h-198z" />
<glyph unicode="n" horiz-adv-x="1235" d="M156 0v1036h192v-137q0 -16 -0.5 -29t-1.5 -24q-1 -12 -2 -23h4q15 34 46 75.5t79 77.5t114 60.5t150 24.5q184 0 270.5 -99t86.5 -298v-664h-199v618q0 55 -7.5 102.5t-29 82.5t-60 55.5t-100.5 20.5q-59 0 -111.5 -18.5t-95 -52.5t-73.5 -80.5t-47 -102.5 q-10 -31 -13.5 -66t-3.5 -74v-485h-198z" />
<glyph unicode="o" horiz-adv-x="1278" d="M80 520q0 118 44 217t119.5 171t177.5 112.5t218 40.5t218 -40.5t177.5 -112.5t119.5 -171t44 -217t-44 -218t-119.5 -172.5t-177.5 -113.5t-218 -41t-218 41t-177.5 113.5t-119.5 172.5t-44 218zM283 520q0 -81 28 -149.5t76.5 -118t113.5 -77.5t138 -28q74 0 139 28 t113 77.5t76 118t28 149.5t-28 148.5t-76 116.5t-113 76.5t-139 27.5q-73 0 -138 -27.5t-113.5 -76.5t-76.5 -116.5t-28 -148.5z" />
<glyph unicode="p" horiz-adv-x="1229" d="M156 -410v1446h182v-88q0 -16 -0.5 -29t-1.5 -24q-1 -12 -2 -23h4q28 53 76 94q20 18 47 35t60.5 30.5t74.5 21.5t90 8q105 0 189 -39.5t143 -111t91 -171.5t32 -221q0 -124 -35.5 -224t-98 -171t-148.5 -109.5t-187 -38.5q-43 0 -79.5 7t-67 19t-55 27.5t-43.5 31.5 q-45 37 -73 85h-4q1 -11 2 -25q1 -12 1.5 -28.5t0.5 -36.5v-465h-198zM348 514q0 -69 19 -135.5t56 -118t92 -83.5t126 -32q61 0 115.5 25t95.5 72.5t64.5 116.5t23.5 157q0 84 -21.5 152.5t-60.5 117t-93 75t-118 26.5q-58 0 -112 -21t-95.5 -66.5t-66.5 -116t-25 -169.5z " />
<glyph unicode="q" horiz-adv-x="1231" d="M88 518q0 124 34.5 224t97 171t148.5 109.5t189 38.5q45 0 83 -7.5t69.5 -20t56.5 -28t45 -31.5q46 -39 74 -87h4q-1 9 -1 20q-1 10 -1 23v28v78h188v-1446h-198v473q0 20 0.5 37t1.5 29q1 14 2 25h-4q-28 -50 -74 -90q-39 -34 -102.5 -61.5t-155.5 -27.5 q-105 0 -190 39.5t-144 111.5t-91 172t-32 220zM291 518q0 -84 21.5 -152.5t60.5 -117t92.5 -75t118.5 -26.5q57 0 111 21t96 66.5t67 116t25 169.5q0 69 -18 135.5t-55 118.5t-92 83.5t-128 31.5q-62 0 -116 -25t-95 -72t-64.5 -116.5t-23.5 -157.5z" />
<glyph unicode="r" horiz-adv-x="768" d="M156 0v1036h192v-180q0 -17 -0.5 -30.5t-1.5 -24.5q-1 -12 -2 -23h4q18 57 49 106.5t73 86t94 57.5t112 21q10 0 18.5 -1t16.5 -2l16 -2v-196q-8 1 -17 3q-8 1 -18.5 2t-21.5 1q-48 0 -92.5 -16.5t-83 -48t-68 -76.5t-47.5 -103q-14 -45 -19.5 -91.5t-5.5 -94.5v-424 h-198z" />
<glyph unicode="s" horiz-adv-x="918" d="M72 127l96 141q35 -35 81 -61q39 -23 93.5 -41.5t122.5 -18.5q32 0 63 8.5t55 25t39 40.5t15 55q0 36 -23 62t-60.5 47.5t-85.5 40.5t-97.5 40t-97.5 47t-85.5 61t-60.5 82t-23 110q0 70 29.5 125t80.5 93t119 57.5t146 19.5q86 0 148 -18t104 -40q48 -26 82 -57 l-80 -149q-29 26 -67 46q-33 17 -80 31.5t-109 14.5q-32 0 -62.5 -7t-54.5 -22.5t-38.5 -39.5t-14.5 -58q0 -35 23 -60.5t60.5 -46.5t85.5 -39.5t97.5 -39t97.5 -46.5t85.5 -61t60.5 -82t23 -111q0 -65 -26.5 -120t-75.5 -95t-118.5 -63t-154.5 -23q-96 0 -169 23.5 t-123 52.5q-59 33 -101 76z" />
<glyph unicode="t" horiz-adv-x="733" d="M63 862v160h142v299h192v-299h250v-160h-250v-461q0 -77 24 -123t58.5 -70.5t72.5 -32t66 -7.5q11 0 20 0.5t15 1.5q7 1 13 2v-176q-9 -1 -20 -2q-9 -1 -22 -1.5t-28 -0.5q-33 0 -75.5 4.5t-86.5 19t-86.5 40.5t-75.5 69t-53 105.5t-20 148.5v483h-136z" />
<glyph unicode="u" horiz-adv-x="1225" d="M141 373v663h199v-618q0 -54 7 -101t28 -82t59.5 -55t100.5 -20q79 0 141 32.5t105 86.5t66 124.5t23 147.5v485h199v-1036h-192v137q0 16 0.5 29.5t1.5 24.5q1 12 2 22h-4q-16 -38 -49 -80t-81.5 -77t-111.5 -58t-139 -23q-176 0 -265.5 96t-89.5 302z" />
<glyph unicode="v" horiz-adv-x="1028" d="M14 1036h211l252 -700q8 -21 14 -46t10.5 -46t7 -35t3.5 -14h4q1 0 4 14l7.5 35t11 46t14.5 46l252 700h209l-383 -1036h-230z" />
<glyph unicode="w" horiz-adv-x="1667" d="M35 1036h211l215 -727q6 -20 10.5 -39.5t7.5 -35.5t5 -25.5t3 -9.5h5q3 17 7 35q3 16 8 35.5t11 39.5l225 725h183l223 -725q6 -20 11 -39.5t9 -35.5q4 -18 9 -35h4q2 17 6 35q3 16 7.5 35.5t10.5 39.5l217 727h209l-334 -1036h-219l-215 666q-6 20 -11 40l-9 36l-8 36 h-5l-8 -36l-9 -36t-11 -40l-213 -666h-221z" />
<glyph unicode="x" horiz-adv-x="1040" d="M45 0l352 532l-334 504h228l192 -315q6 -11 12.5 -21.5t11.5 -19.5q6 -11 11 -21h4q5 10 11 21q5 9 11.5 19.5t12.5 21.5l193 315h227l-334 -504l352 -532h-225l-217 346q-5 9 -10.5 19.5t-10.5 18.5q-5 10 -10 19h-4q-5 -9 -10 -19q-5 -8 -10.5 -18.5t-10.5 -19.5 l-217 -346h-225z" />
<glyph unicode="y" horiz-adv-x="1044" d="M4 1036h223l260 -678q8 -20 15 -41.5t12 -40.5q6 -22 12 -43h4q5 21 11 42q5 18 11 39.5t13 41.5l252 680h215l-485 -1222q-24 -60 -59 -105.5t-78.5 -76.5t-94 -46.5t-104.5 -15.5q-45 0 -81 9.5t-63 21.5q-32 14 -57 32l70 152q17 -12 36 -22q17 -8 39 -14.5t46 -6.5 q60 0 108.5 40t77.5 112l51 118z" />
<glyph unicode="z" horiz-adv-x="1059" d="M80 0v115l522 655q17 20 32.5 38t27.5 31q14 15 26 27v4q-10 -1 -25 -2q-13 -1 -31.5 -1.5t-43.5 -0.5h-486v170h854v-114l-522 -658q-17 -20 -32 -37t-28 -30q-15 -15 -28 -27v-4q11 1 26 2q13 1 32 1.5t45 0.5h526v-170h-895z" />
<glyph unicode="{" horiz-adv-x="717" d="M100 578v176q48 8 87 34q16 11 31.5 27.5t28 40t20 54.5t7.5 71v172q0 81 18 139t46.5 97.5t64.5 63t73 36t71 16.5t59 4q11 0 19.5 -0.5t14.5 -0.5q7 -1 13 -1v-151h-28q-20 0 -49.5 -6t-58 -28t-48.5 -65t-20 -116v-211q0 -38 -7 -69.5t-19 -57t-27 -45t-30 -34.5 q-37 -35 -83 -54v-4q46 -17 83 -51q15 -15 30 -34.5t27 -45t19 -58t7 -71.5v-236q0 -74 20 -117t48.5 -64.5t58 -27.5t49.5 -6h28v-152q-6 -1 -13 -2q-6 -1 -14.5 -1.5t-19.5 -0.5q-25 0 -59 4t-71 16.5t-73 36.5t-64.5 64t-46.5 98.5t-18 139.5v196q0 39 -7.5 69.5 t-20 53.5t-28 39.5t-31.5 27.5q-39 26 -87 34z" />
<glyph unicode="|" horiz-adv-x="580" d="M203 -326v1948h174v-1948h-174z" />
<glyph unicode="}" horiz-adv-x="717" d="M63 -45h29q19 0 49 6t58 27.5t48.5 64.5t20.5 117v236q0 39 7 71.5t18.5 58t26.5 45t31 34.5q36 34 83 51v4q-47 19 -83 54q-16 15 -31 34.5t-26.5 45t-18.5 57t-7 69.5v211q0 73 -20.5 116t-48.5 65t-58 28t-49 6h-29v151q6 0 13 1q6 0 15 0.5t20 0.5q24 0 58.5 -4 t71 -16.5t72.5 -36t65 -63t46.5 -97.5t17.5 -139v-172q0 -40 7.5 -71t19.5 -54.5t27.5 -40t32.5 -27.5q38 -26 87 -34v-176q-49 -8 -87 -34q-17 -11 -32.5 -27.5t-27.5 -39.5t-19.5 -53.5t-7.5 -69.5v-196q0 -82 -17.5 -140t-46.5 -98t-65 -64t-72.5 -36.5t-70.5 -16.5 t-59 -4q-11 0 -20 0.5t-15 1.5q-7 1 -13 2v152z" />
<glyph unicode="~" horiz-adv-x="1245" d="M137 418q0 89 20 154t57 108t90 63.5t120 20.5q54 0 93 -15t70 -37t56 -48.5t50.5 -48.5t54.5 -37t67 -15q41 0 67.5 18t42 46t21.5 62.5t6 66.5h162q0 -90 -19.5 -155.5t-56.5 -107.5t-90 -62.5t-119 -20.5q-54 0 -93 14.5t-69.5 36.5t-56 48t-51 48t-55 36.5 t-68.5 14.5q-40 0 -66.5 -18t-42 -45.5t-22 -61.5t-6.5 -65h-162z" />
<glyph unicode="&#xa1;" horiz-adv-x="592" d="M193 -410l14 1049h178l12 -1049h-204zM193 838v198h202v-198h-202z" />
<glyph unicode="&#xa2;" horiz-adv-x="1180" d="M109 723q0 111 29.5 210t85 175.5t135.5 126t182 63.5v172h145v-172q136 -20 234 -104.5t151 -212.5l-180 -70q-19 43 -45 80t-59.5 64.5t-75.5 43t-93 15.5q-74 0 -131 -30t-96 -82.5t-59.5 -124t-20.5 -154.5q0 -85 19.5 -156.5t58 -123t96 -80.5t133.5 -29 q50 0 92 15.5t75.5 42.5t60 64t45.5 81l180 -72q-24 -57 -60.5 -110.5t-84.5 -96.5t-108 -72t-132 -36v-177h-145v177q-102 13 -182 63t-135.5 126.5t-85 174.5t-29.5 209z" />
<glyph unicode="&#xa3;" horiz-adv-x="1210" d="M115 0v176h125v477h-90v144h90v278q0 85 33 157.5t92 125.5t140.5 82.5t178.5 29.5q78 0 141 -20.5t108 -45.5q53 -29 93 -65l-117 -141q-30 25 -65 44q-30 17 -70.5 30.5t-87.5 13.5q-57 0 -101.5 -17t-76 -47t-48 -70t-16.5 -85v-270h377v-144h-377v-477h666v-176h-995 z" />
<glyph unicode="&#xa5;" horiz-adv-x="1243" d="M57 1446h232l241 -451q17 -36 33 -73.5t28 -67.5q14 -35 27 -68h5q13 33 27 68q12 30 28 67.5t33 73.5l243 451h232l-340 -606h209v-129h-277l-55 -99v-75h332v-129h-332v-408h-205v408h-334v129h334v75l-55 99h-279v129h211z" />
<glyph unicode="&#xa7;" horiz-adv-x="905" d="M98 -23l90 138q25 -21 56 -38q26 -14 62.5 -26t80.5 -12q45 0 85 13.5t69 40.5t46 67t17 94q0 39 -12 92l-135 770h161l144 -799q5 -24 7.5 -47t2.5 -45q0 -76 -26.5 -140.5t-76 -111.5t-121 -73.5t-161.5 -26.5q-67 0 -120 16t-91 36q-44 23 -78 52zM129 1120 q0 75 26.5 139t76.5 111t121.5 73.5t162.5 26.5q66 0 119 -16t91 -36q44 -23 79 -52l-94 -131q-24 19 -55 35q-26 13 -62 24t-78 11q-46 0 -86 -13t-69.5 -38.5t-46.5 -64.5t-17 -91q0 -36 12 -82l140 -789h-164l-144 799q-6 23 -9 47t-3 47z" />
<glyph unicode="&#xa8;" horiz-adv-x="1022" d="M258 1599v207h164v-207h-164zM600 1599v207h164v-207h-164z" />
<glyph unicode="&#xa9;" d="M111 723q0 104 26 200t73 179t113 150.5t147 116t174 75t194 26.5q153 0 286.5 -58t232.5 -159.5t156.5 -237.5t57.5 -292q0 -104 -26 -200t-73.5 -179t-114.5 -151t-148.5 -116.5t-175 -75t-195.5 -26.5q-101 0 -194 26.5t-174 75t-147 116.5t-113 151t-73 179t-26 200z M260 723q0 -128 44.5 -239t122.5 -193t183.5 -129t227.5 -47q123 0 229.5 47t185 129t123.5 193t45 239t-45 239t-123.5 193t-185 129t-229.5 47q-122 0 -227.5 -47t-183.5 -129t-122.5 -193t-44.5 -239zM449 721q0 81 28 155t80.5 130.5t127 90t167.5 33.5q44 0 81.5 -9 t69.5 -23t58 -32t46 -37q48 -45 79 -101l-125 -68q-22 36 -52 64q-26 24 -63.5 44.5t-87.5 20.5q-61 0 -108 -22t-79.5 -59t-49.5 -85.5t-17 -101.5q0 -55 16.5 -103.5t48.5 -85t79.5 -58t109.5 -21.5q51 0 88.5 20t63.5 44q30 28 51 65l125 -68q-31 -57 -79 -102 q-20 -19 -46 -37t-58 -32.5t-69.5 -23t-81.5 -8.5q-93 0 -167.5 33.5t-127 90t-80.5 131t-28 155.5z" />
<glyph unicode="&#xaa;" horiz-adv-x="864" d="M150 543v116h563v-116h-563zM152 981q0 55 21 93t54.5 63t75.5 39t85 20.5t82 8t67 1.5h20v13q0 36 -10 60.5t-27 40t-41.5 22t-52.5 6.5q-33 0 -64 -9t-54 -20q-28 -13 -52 -29l-59 101q28 20 65 37q32 14 77.5 26t104.5 12q128 0 194.5 -66.5t66.5 -191.5v-411h-140v94 h-4q-18 -31 -44 -55q-23 -20 -58.5 -37t-85.5 -17q-41 0 -80.5 13t-71 38t-50.5 62.5t-19 85.5zM299 991q0 -35 26.5 -61.5t77.5 -26.5q36 0 64.5 16.5t48.5 42.5t30.5 58.5t10.5 64.5v17h-25q-29 0 -69 -2.5t-76.5 -13.5t-62 -33.5t-25.5 -61.5z" />
<glyph unicode="&#xab;" horiz-adv-x="1139" d="M90 578l336 421h199l-336 -421l336 -420h-199zM502 578l336 421h198l-336 -421l336 -420h-198z" />
<glyph unicode="&#xac;" horiz-adv-x="1257" d="M123 696v160h977v-547h-166v387h-811z" />
<glyph unicode="&#xad;" horiz-adv-x="883" d="M143 496v176h598v-176h-598z" />
<glyph unicode="&#xae;" d="M111 723q0 104 26 200t73 179t113 150.5t147 116t174 75t194 26.5q153 0 286.5 -58t232.5 -159.5t156.5 -237.5t57.5 -292q0 -104 -26 -200t-73.5 -179t-114.5 -151t-148.5 -116.5t-175 -75t-195.5 -26.5q-101 0 -194 26.5t-174 75t-147 116.5t-113 151t-73 179t-26 200z M260 723q0 -128 44.5 -239t122.5 -193t183.5 -129t227.5 -47q123 0 229.5 47t185 129t123.5 193t45 239t-45 239t-123.5 193t-185 129t-229.5 47q-122 0 -227.5 -47t-183.5 -129t-122.5 -193t-44.5 -239zM588 340v772h297q54 0 99 -16.5t77 -47.5t49.5 -74t17.5 -97 q0 -45 -13 -80t-33.5 -61t-45.5 -42t-49 -22v-4l6 -9q3 -5 8 -13t13 -21l147 -285h-160l-143 299h-125v-299h-145zM733 745h123q57 0 91 35t34 97q0 60 -34 92t-91 32h-123v-256z" />
<glyph unicode="&#xaf;" horiz-adv-x="1022" d="M250 1606v143h522v-143h-522z" />
<glyph unicode="&#xb0;" horiz-adv-x="797" d="M88 1167q0 62 24 117t66 96.5t98 65.5t121 24q64 0 121 -24t99.5 -65.5t67 -96.5t24.5 -117q0 -63 -24.5 -118t-67 -96.5t-99.5 -65t-121 -23.5q-65 0 -121 23.5t-98 65t-66 96.5t-24 118zM246 1167q0 -32 11.5 -59.5t31.5 -47.5t48 -32t60 -12t60 12t48.5 32t32 47.5 t11.5 59.5q0 31 -11.5 59t-32 49t-48.5 33.5t-60 12.5t-60 -12.5t-48 -33.5t-31.5 -49t-11.5 -59z" />
<glyph unicode="&#xb1;" horiz-adv-x="1395" d="M156 504v160h458v503h168v-503h457v-160h-457v-504h-168v504h-458zM188 -195h1018v-159h-1018v159z" />
<glyph unicode="&#xb2;" horiz-adv-x="797" d="M96 940q0 86 32 147.5t80.5 107.5t104.5 81.5t104.5 69.5t80.5 72t32 89q0 28 -11 52.5t-30.5 42.5t-46.5 28t-59 10q-38 0 -69.5 -15.5t-54.5 -33.5q-27 -22 -48 -49l-100 92q28 41 69 74q35 28 87.5 51t123.5 23q63 0 117 -19.5t93.5 -54.5t62 -84.5t22.5 -110.5 q0 -75 -30.5 -128.5t-76.5 -94.5t-99.5 -73t-100.5 -64t-79.5 -68t-35.5 -84h436v-135h-598l-4 38t-2 36z" />
<glyph unicode="&#xb3;" horiz-adv-x="797" d="M82 981l86 109q23 -29 54 -52q26 -20 65 -35.5t90 -15.5q32 0 62.5 11.5t54.5 32.5t38.5 49.5t14.5 62.5q0 35 -15.5 62t-41 45.5t-58.5 28t-67 9.5h-70l-33 78l182 211q7 8 15.5 16.5l16.5 16.5l18 16v4q-12 -2 -24 -3q-11 -2 -24 -2.5t-26 -0.5h-289v137h555v-98 l-223 -258q46 -7 89 -26t76.5 -51t53.5 -78t20 -107q0 -59 -23.5 -113t-65.5 -95t-101 -65t-129 -24q-78 0 -134.5 20.5t-93.5 46.5q-43 30 -73 68z" />
<glyph unicode="&#xb4;" horiz-adv-x="1022" d="M330 1546l149 260h213l-196 -260h-166z" />
<glyph unicode="&#xb5;" horiz-adv-x="1268" d="M170 -410v1446h199v-618q0 -54 7 -101t27.5 -82t58 -55t99.5 -20q80 0 142.5 32.5t106 86.5t66.5 124.5t23 147.5v485h199v-1036h-193v141q0 14 0.5 27t1.5 23l2 22h-6q-31 -67 -84 -119q-23 -23 -52 -44t-66 -38t-81.5 -27t-97.5 -10q-52 0 -87 10t-57 22q-26 14 -42 32 h-4q3 -30 7 -58q2 -25 4.5 -52t2.5 -50v-289h-176z" />
<glyph unicode="&#xb6;" horiz-adv-x="1208" d="M88 971q0 100 38.5 187t104 151t153.5 100.5t187 36.5h557v-176h-401v-1372h-154v596q-99 0 -187 36.5t-154.5 101t-105 151.5t-38.5 188zM854 -102v1255h152v-1255h-152z" />
<glyph unicode="&#xb7;" horiz-adv-x="563" d="M180 489v211h203v-211h-203z" />
<glyph unicode="&#xb8;" horiz-adv-x="1022" d="M350 -291q12 -4 26 -7q12 -3 27.5 -5t32.5 -2q19 0 37 3t31.5 10.5t22 19.5t8.5 30q0 32 -30.5 48t-78.5 16q-7 0 -13.5 -0.5t-11.5 -0.5q-6 -1 -12 -1l60 227l100 -20v-17l-25 -112q63 -8 105.5 -46t42.5 -104q0 -48 -18 -80.5t-47.5 -53t-67 -29.5t-76.5 -9 q-25 0 -45.5 2t-35.5 5q-18 3 -32 7v119z" />
<glyph unicode="&#xb9;" horiz-adv-x="797" d="M133 1550l217 211h139v-760h187v-135h-531v135h191v510q0 11 0.5 20.5t1.5 17.5q1 9 2 16h-4q-3 -6 -8 -13q-5 -6 -11.5 -14t-17.5 -18l-72 -70z" />
<glyph unicode="&#xba;" horiz-adv-x="956" d="M127 1130q0 73 27.5 135t74.5 107t110.5 70.5t135.5 25.5q73 0 137 -25.5t112 -70.5t75.5 -107t27.5 -135q0 -75 -27.5 -138t-75 -109t-111.5 -71.5t-136 -25.5q-73 0 -136.5 25.5t-111 71.5t-75 109t-27.5 138zM160 543v116h639v-116h-639zM274 1130q0 -47 16 -85.5 t43.5 -67t64.5 -44t79 -15.5t78.5 15.5t63.5 44t43 67t16 85.5q0 45 -16 83t-43 65.5t-63.5 43t-78.5 15.5t-79 -15.5t-64.5 -43t-43.5 -65.5t-16 -83z" />
<glyph unicode="&#xbb;" horiz-adv-x="1141" d="M102 158l336 420l-336 421h199l336 -421l-336 -420h-199zM516 158l336 420l-336 421h199l336 -421l-336 -420h-199z" />
<glyph unicode="&#xbc;" horiz-adv-x="1980" d="M109 1236l217 211h139v-760h187v-135h-531v135h191v510q0 11 0.5 20.5t1.5 17.5q1 9 2 16h-4q-3 -6 -8 -13q-5 -6 -11.5 -14t-17.5 -18l-72 -70zM534 0l688 1446h154l-688 -1446h-154zM1167 220v103l412 573h166v-540h125v-136h-125v-219h-152v219h-426zM1335 356h258 v252q0 20 0.5 41t2.5 38q1 20 3 39h-4q-8 -16 -18 -33q-8 -14 -19 -31.5t-22 -33.5l-201 -268v-4z" />
<glyph unicode="&#xbd;" horiz-adv-x="1968" d="M109 1236l217 211h139v-760h187v-135h-531v135h191v510q0 11 0.5 20.5t1.5 17.5q1 9 2 16h-4q-3 -6 -8 -13q-5 -6 -11.5 -14t-17.5 -18l-72 -70zM538 0l688 1446h154l-688 -1446h-154zM1229 75q0 86 32 147.5t80.5 107.5t104.5 81.5t104.5 69.5t80.5 72t32 89 q0 28 -11 52.5t-30.5 42.5t-46.5 28t-59 10q-38 0 -69.5 -15.5t-54.5 -33.5q-27 -22 -48 -49l-100 92q28 41 69 74q35 28 87.5 51t123.5 23q63 0 117 -19.5t93.5 -54.5t62 -84.5t22.5 -110.5q0 -75 -30.5 -128.5t-76.5 -94.5t-99.5 -73t-100.5 -64t-79.5 -68t-35.5 -84h436 v-135h-598l-4 38t-2 36z" />
<glyph unicode="&#xbe;" horiz-adv-x="2005" d="M82 667l86 109q23 -29 54 -52q26 -20 65 -35.5t90 -15.5q32 0 62.5 11.5t54.5 32.5t38.5 49.5t14.5 62.5q0 35 -15.5 62t-41 45.5t-58.5 28t-67 9.5h-70l-33 78l182 211q7 8 15.5 16.5l16.5 16.5l18 16v4q-12 -2 -24 -3q-11 -2 -24 -2.5t-26 -0.5h-289v137h555v-98 l-223 -258q46 -7 89 -26t76.5 -51t53.5 -78t20 -107q0 -59 -23.5 -113t-65.5 -95t-101 -65t-129 -24q-78 0 -134.5 20.5t-93.5 46.5q-43 30 -73 68zM559 0l688 1446h154l-688 -1446h-154zM1192 220v103l412 573h166v-540h125v-136h-125v-219h-152v219h-426zM1360 356h258 v252q0 20 0.5 41t2.5 38q1 20 3 39h-4q-8 -16 -18 -33q-8 -14 -19 -31.5t-22 -33.5l-201 -268v-4z" />
<glyph unicode="&#xbf;" horiz-adv-x="922" d="M80 -57q0 84 27 146t67 110t87 87.5t87 80.5t67 87.5t27 108.5v76h193v-88q0 -78 -25.5 -135.5t-64 -104t-83.5 -85.5t-83.5 -78.5t-64 -85t-25.5 -103.5q0 -43 17.5 -80.5t48.5 -65t73.5 -43.5t93.5 -16q48 0 90.5 13.5t74.5 30.5q37 19 69 44l108 -141q-40 -37 -94 -66 q-46 -25 -112 -45t-150 -20q-87 0 -165 26t-136.5 75t-92.5 117.5t-34 154.5zM438 838v198h203v-198h-203z" />
<glyph unicode="&#xc0;" horiz-adv-x="1286" d="M16 0l521 1446h213l520 -1446h-211l-146 416h-544l-144 -416h-209zM369 1806h213l149 -260h-168zM422 584h438l-160 458q-9 28 -19 63t-18 67q-10 37 -18 75h-4q-10 -38 -20 -75q-8 -32 -18 -67t-19 -63z" />
<glyph unicode="&#xc1;" horiz-adv-x="1286" d="M16 0l521 1446h213l520 -1446h-211l-146 416h-544l-144 -416h-209zM422 584h438l-160 458q-9 28 -19 63t-18 67q-10 37 -18 75h-4q-10 -38 -20 -75q-8 -32 -18 -67t-19 -63zM553 1546l149 260h213l-196 -260h-166z" />
<glyph unicode="&#xc2;" horiz-adv-x="1286" d="M16 0l521 1446h213l520 -1446h-211l-146 416h-544l-144 -416h-209zM358 1546l181 260h206l181 -260h-174l-109 164h-4l-107 -164h-174zM422 584h438l-160 458q-9 28 -19 63t-18 67q-10 37 -18 75h-4q-10 -38 -20 -75q-8 -32 -18 -67t-19 -63z" />
<glyph unicode="&#xc3;" horiz-adv-x="1286" d="M16 0l521 1446h213l520 -1446h-211l-146 416h-544l-144 -416h-209zM299 1548q0 260 209 260q51 0 85.5 -21.5t62 -48t52.5 -48t58 -21.5q23 0 38.5 12.5t24.5 32t13 43t4 45.5h143q0 -128 -52 -194t-157 -66q-51 0 -85.5 21.5t-62 48t-52.5 48t-58 21.5q-23 0 -38.5 -12 t-24.5 -31t-13 -43t-4 -47h-143zM422 584h438l-160 458q-9 28 -19 63t-18 67q-10 37 -18 75h-4q-10 -38 -20 -75q-8 -32 -18 -67t-19 -63z" />
<glyph unicode="&#xc4;" horiz-adv-x="1286" d="M16 0l521 1446h213l520 -1446h-211l-146 416h-544l-144 -416h-209zM391 1599v207h164v-207h-164zM422 584h438l-160 458q-9 28 -19 63t-18 67q-10 37 -18 75h-4q-10 -38 -20 -75q-8 -32 -18 -67t-19 -63zM733 1599v207h164v-207h-164z" />
<glyph unicode="&#xc5;" horiz-adv-x="1286" d="M16 0l521 1446h213l520 -1446h-211l-146 416h-544l-144 -416h-209zM422 584h438l-160 458q-9 28 -19 63t-18 67q-10 37 -18 75h-4q-10 -38 -20 -75q-8 -32 -18 -67t-19 -63zM469 1673q0 36 14 64.5t38 48.5t55.5 30.5t66.5 10.5q34 0 65.5 -10.5t55.5 -30.5t38.5 -48.5 t14.5 -64.5q0 -35 -14.5 -63t-38.5 -47.5t-55.5 -30t-65.5 -10.5q-35 0 -66.5 10.5t-55.5 30t-38 47.5t-14 63zM575 1673q0 -29 18.5 -48t49.5 -19q29 0 48.5 19t19.5 48q0 32 -19.5 52t-48.5 20q-31 0 -49.5 -20t-18.5 -52z" />
<glyph unicode="&#xc6;" horiz-adv-x="1798" d="M8 0l598 1446h1057v-176h-639v-453h520v-176h-520v-465h674v-176h-875v643h-346l-258 -643h-211zM545 811h278v459h-94z" />
<glyph unicode="&#xc7;" horiz-adv-x="1483" d="M102 731q0 105 25.5 200.5t72 177.5t113 149t148 114t177 72.5t200.5 25.5q65 0 122.5 -8t106.5 -21.5t90 -30.5t74 -35q77 -42 133 -95l-100 -152q-51 44 -115 79q-27 15 -60.5 29t-71.5 25t-81 18t-90 7q-122 0 -220.5 -43t-168.5 -118t-108 -176t-38 -216 q0 -116 38.5 -219.5t109 -181.5t169.5 -124t220 -46q51 0 97 8t87 21.5t76.5 30t64.5 34.5q68 41 121 94l109 -145q-58 -60 -137 -109q-34 -21 -75.5 -41.5t-91 -37.5t-106.5 -28t-121 -14l-16 -77q63 -8 105.5 -46t42.5 -104q0 -48 -18 -80.5t-47.5 -53t-67 -29.5t-76.5 -9 q-25 0 -45.5 2t-35.5 5q-18 3 -32 7v119q12 -4 26 -7q12 -3 27.5 -5t32.5 -2q19 0 37 3t31.5 10.5t21.5 19.5t8 30q0 32 -30 48t-78 16q-8 0 -14.5 -0.5t-11.5 -0.5q-6 -1 -11 -1l41 160q-147 13 -268.5 76.5t-208.5 163.5t-135 231t-48 280z" />
<glyph unicode="&#xc8;" horiz-adv-x="1174" d="M197 0v1446h839v-176h-637v-453h519v-176h-519v-465h672v-176h-874zM365 1806h213l149 -260h-168z" />
<glyph unicode="&#xc9;" horiz-adv-x="1174" d="M197 0v1446h839v-176h-637v-453h519v-176h-519v-465h672v-176h-874zM551 1546l149 260h213l-196 -260h-166z" />
<glyph unicode="&#xca;" horiz-adv-x="1174" d="M197 0v1446h839v-176h-637v-453h519v-176h-519v-465h672v-176h-874zM356 1546l181 260h206l181 -260h-174l-109 164h-4l-107 -164h-174z" />
<glyph unicode="&#xcb;" horiz-adv-x="1174" d="M197 0v1446h839v-176h-637v-453h519v-176h-519v-465h672v-176h-874zM387 1599v207h164v-207h-164zM729 1599v207h164v-207h-164z" />
<glyph unicode="&#xcc;" horiz-adv-x="596" d="M26 1806h213l149 -260h-168zM197 0v1446h202v-1446h-202z" />
<glyph unicode="&#xcd;" horiz-adv-x="596" d="M197 0v1446h202v-1446h-202zM212 1546l149 260h213l-196 -260h-166z" />
<glyph unicode="&#xce;" horiz-adv-x="596" d="M15 1546l181 260h206l181 -260h-174l-109 164h-4l-107 -164h-174zM197 0v1446h202v-1446h-202z" />
<glyph unicode="&#xcf;" horiz-adv-x="596" d="M48 1599v207h164v-207h-164zM197 0v1446h202v-1446h-202zM390 1599v207h164v-207h-164z" />
<glyph unicode="&#xd0;" horiz-adv-x="1554" d="M115 639v168h121v639h479q166 0 301 -48.5t231 -140.5t148.5 -226.5t52.5 -305.5q0 -172 -52.5 -307t-148.5 -228t-231 -141.5t-301 -48.5h-479v639h-121zM438 176h262q122 0 221.5 35.5t170 105.5t109 172t38.5 236q0 133 -38.5 234.5t-109.5 170.5t-170.5 104.5 t-220.5 35.5h-262v-463h305v-168h-305v-463z" />
<glyph unicode="&#xd1;" horiz-adv-x="1550" d="M197 0v1446h200l643 -940q20 -29 41.5 -65.5t39.5 -68.5q20 -38 40 -75h4q-4 37 -7 74q-3 32 -5 68.5t-2 66.5v940h203v-1446h-199l-645 938q-20 30 -41 66.5t-39 68.5q-21 38 -41 76h-4q3 -38 7 -75q2 -32 4.5 -68.5t2.5 -67.5v-938h-202zM430 1548q0 260 209 260 q51 0 85.5 -21.5t62 -48t52.5 -48t58 -21.5q23 0 38.5 12.5t24.5 32t13 43t4 45.5h143q0 -128 -52 -194t-157 -66q-51 0 -85.5 21.5t-62 48t-52.5 48t-58 21.5q-23 0 -38.5 -12t-24.5 -31t-13 -43t-4 -47h-143z" />
<glyph unicode="&#xd2;" d="M98 733q0 156 57.5 290.5t158 234t236 156t292.5 56.5t292 -56.5t235 -156t157 -234t57 -290.5q0 -107 -26 -204.5t-73.5 -181.5t-114.5 -152.5t-149 -117.5t-178 -75.5t-200 -26.5q-105 0 -200.5 26.5t-178 75.5t-150 117.5t-115.5 152.5t-74 181.5t-26 204.5zM307 733 q0 -122 42 -226.5t115 -181t170 -120t208 -43.5t208 43.5t169 120t113.5 181t41.5 226.5q0 118 -41.5 219.5t-113.5 175.5t-169 116t-208 42t-208 -42t-170 -116t-115 -175.5t-42 -219.5zM568 1806h213l149 -260h-168z" />
<glyph unicode="&#xd3;" d="M98 733q0 156 57.5 290.5t158 234t236 156t292.5 56.5t292 -56.5t235 -156t157 -234t57 -290.5q0 -107 -26 -204.5t-73.5 -181.5t-114.5 -152.5t-149 -117.5t-178 -75.5t-200 -26.5q-105 0 -200.5 26.5t-178 75.5t-150 117.5t-115.5 152.5t-74 181.5t-26 204.5zM307 733 q0 -122 42 -226.5t115 -181t170 -120t208 -43.5t208 43.5t169 120t113.5 181t41.5 226.5q0 118 -41.5 219.5t-113.5 175.5t-169 116t-208 42t-208 -42t-170 -116t-115 -175.5t-42 -219.5zM754 1546l149 260h213l-196 -260h-166z" />
<glyph unicode="&#xd4;" d="M98 733q0 156 57.5 290.5t158 234t236 156t292.5 56.5t292 -56.5t235 -156t157 -234t57 -290.5q0 -107 -26 -204.5t-73.5 -181.5t-114.5 -152.5t-149 -117.5t-178 -75.5t-200 -26.5q-105 0 -200.5 26.5t-178 75.5t-150 117.5t-115.5 152.5t-74 181.5t-26 204.5zM307 733 q0 -122 42 -226.5t115 -181t170 -120t208 -43.5t208 43.5t169 120t113.5 181t41.5 226.5q0 118 -41.5 219.5t-113.5 175.5t-169 116t-208 42t-208 -42t-170 -116t-115 -175.5t-42 -219.5zM557 1546l181 260h206l181 -260h-174l-109 164h-4l-107 -164h-174z" />
<glyph unicode="&#xd5;" d="M98 733q0 156 57.5 290.5t158 234t236 156t292.5 56.5t292 -56.5t235 -156t157 -234t57 -290.5q0 -107 -26 -204.5t-73.5 -181.5t-114.5 -152.5t-149 -117.5t-178 -75.5t-200 -26.5q-105 0 -200.5 26.5t-178 75.5t-150 117.5t-115.5 152.5t-74 181.5t-26 204.5zM307 733 q0 -122 42 -226.5t115 -181t170 -120t208 -43.5t208 43.5t169 120t113.5 181t41.5 226.5q0 118 -41.5 219.5t-113.5 175.5t-169 116t-208 42t-208 -42t-170 -116t-115 -175.5t-42 -219.5zM498 1548q0 260 209 260q51 0 85.5 -21.5t62 -48t52.5 -48t58 -21.5q23 0 38.5 12.5 t24.5 32t13 43t4 45.5h143q0 -128 -52 -194t-157 -66q-51 0 -85.5 21.5t-62 48t-52.5 48t-58 21.5q-23 0 -38.5 -12t-24.5 -31t-13 -43t-4 -47h-143z" />
<glyph unicode="&#xd6;" d="M98 733q0 156 57.5 290.5t158 234t236 156t292.5 56.5t292 -56.5t235 -156t157 -234t57 -290.5q0 -107 -26 -204.5t-73.5 -181.5t-114.5 -152.5t-149 -117.5t-178 -75.5t-200 -26.5q-105 0 -200.5 26.5t-178 75.5t-150 117.5t-115.5 152.5t-74 181.5t-26 204.5zM307 733 q0 -122 42 -226.5t115 -181t170 -120t208 -43.5t208 43.5t169 120t113.5 181t41.5 226.5q0 118 -41.5 219.5t-113.5 175.5t-169 116t-208 42t-208 -42t-170 -116t-115 -175.5t-42 -219.5zM590 1599v207h164v-207h-164zM932 1599v207h164v-207h-164z" />
<glyph unicode="&#xd7;" horiz-adv-x="1321" d="M129 113l422 471l-422 471l113 112l417 -467l420 467l113 -112l-424 -471l424 -471l-113 -113l-420 465l-417 -465z" />
<glyph unicode="&#xd8;" horiz-adv-x="1688" d="M102 733q0 156 57.5 290.5t158 234t236 156t292.5 56.5q105 0 200 -26t179 -74l94 129l100 -69l-94 -132q122 -100 192 -245t70 -320q0 -107 -26 -204.5t-73.5 -181.5t-114.5 -152.5t-149 -117.5t-178 -75.5t-200 -26.5q-110 0 -209 28t-184 81l-97 -135l-102 69l100 142 q-58 51 -104.5 114.5t-79.5 136t-50.5 154t-17.5 168.5zM311 733q0 -125 43 -229.5t117 -181.5l641 890q-59 36 -126.5 55t-139.5 19q-111 0 -208 -42t-170 -116t-115 -175.5t-42 -219.5zM567 242q60 -39 130.5 -59.5t148.5 -20.5q111 0 208 43.5t169 120t113.5 181 t41.5 226.5q0 124 -44.5 227.5t-123.5 178.5z" />
<glyph unicode="&#xd9;" horiz-adv-x="1491" d="M176 512v934h203v-934q0 -83 26 -148t73.5 -110t114.5 -68.5t150 -23.5q84 0 152 23.5t116.5 69t74.5 111.5t26 150v930h203v-934q0 -121 -41.5 -220t-116.5 -169.5t-180 -109t-232 -38.5q-126 0 -231 38.5t-180 109t-116.5 169.5t-41.5 220zM471 1806h213l149 -260h-168 z" />
<glyph unicode="&#xda;" horiz-adv-x="1491" d="M176 512v934h203v-934q0 -83 26 -148t73.5 -110t114.5 -68.5t150 -23.5q84 0 152 23.5t116.5 69t74.5 111.5t26 150v930h203v-934q0 -121 -41.5 -220t-116.5 -169.5t-180 -109t-232 -38.5q-126 0 -231 38.5t-180 109t-116.5 169.5t-41.5 220zM656 1546l149 260h213 l-196 -260h-166z" />
<glyph unicode="&#xdb;" horiz-adv-x="1491" d="M176 512v934h203v-934q0 -83 26 -148t73.5 -110t114.5 -68.5t150 -23.5q84 0 152 23.5t116.5 69t74.5 111.5t26 150v930h203v-934q0 -121 -41.5 -220t-116.5 -169.5t-180 -109t-232 -38.5q-126 0 -231 38.5t-180 109t-116.5 169.5t-41.5 220zM460 1546l181 260h206 l181 -260h-174l-109 164h-4l-107 -164h-174z" />
<glyph unicode="&#xdc;" horiz-adv-x="1491" d="M176 512v934h203v-934q0 -83 26 -148t73.5 -110t114.5 -68.5t150 -23.5q84 0 152 23.5t116.5 69t74.5 111.5t26 150v930h203v-934q0 -121 -41.5 -220t-116.5 -169.5t-180 -109t-232 -38.5q-126 0 -231 38.5t-180 109t-116.5 169.5t-41.5 220zM494 1599v207h164v-207h-164 zM836 1599v207h164v-207h-164z" />
<glyph unicode="&#xdd;" horiz-adv-x="1204" d="M16 1446h230l268 -475q17 -30 33 -62.5t28 -59.5q14 -32 27 -61h4q13 29 27 61q12 26 28 58.5t33 63.5l264 475h230l-483 -834v-612h-203v612zM514 1546l149 260h213l-196 -260h-166z" />
<glyph unicode="&#xde;" horiz-adv-x="1243" d="M197 0v1446h200v-246h328q99 0 182 -32t143.5 -91t94 -142.5t33.5 -186.5t-33.5 -187.5t-94 -145t-144 -93.5t-183.5 -33h-326v-289h-200zM397 465h295q65 0 117 19.5t88.5 56.5t56 89t19.5 118q0 65 -19.5 116.5t-55.5 87t-88 54t-116 18.5h-297v-559z" />
<glyph unicode="&#xdf;" horiz-adv-x="1204" d="M156 0v1085q0 94 37.5 166t99.5 121t141.5 73.5t163.5 24.5q85 0 156.5 -26t123 -70.5t80.5 -104.5t29 -128q0 -50 -15 -89t-38 -71t-49.5 -59t-49.5 -53t-38 -52t-15 -57q0 -32 27 -61t68 -58.5t88.5 -62.5t88.5 -74t68 -91.5t27 -115.5q0 -78 -29.5 -136.5t-78 -97.5 t-112 -58t-130.5 -19q-72 0 -126 9t-91 20q-43 13 -74 30v176q34 -18 76 -32q36 -12 84.5 -21.5t105.5 -9.5q34 0 65 8.5t55 26t38 45.5t14 67q0 41 -27 75.5t-68 66t-88 63t-88 67.5t-68 79t-27 98q0 42 15.5 77t38 65t49.5 58t49.5 56.5t38 60t15.5 68.5q0 30 -12 58.5 t-36.5 51t-61 36t-84.5 13.5q-45 0 -88 -14t-76.5 -42t-53.5 -70.5t-20 -100.5v-1071h-198z" />
<glyph unicode="&#xe0;" horiz-adv-x="1081" d="M72 291q0 85 34 145t89 99.5t124 62t138 33.5t132.5 13.5t106.5 2.5h45v19q0 64 -17 107.5t-47.5 70t-72 38t-90.5 11.5q-60 0 -113 -15.5t-92 -34.5q-46 -22 -84 -50l-82 145q46 34 105 61q51 23 121.5 42.5t160.5 19.5q198 0 304 -104t106 -302v-655h-184v98 q0 17 0.5 32.5t1.5 26.5q1 13 2 23h-4q-27 -58 -73 -103q-20 -19 -45 -37.5t-57.5 -32.5t-71.5 -23t-85 -9q-67 0 -130 20.5t-112.5 60t-79.5 98.5t-30 137zM265 1447h213l149 -260h-168zM272 301q0 -32 12.5 -61.5t37 -53t61 -37.5t84.5 -14q63 0 114 30t87 77.5t55.5 106 t19.5 116.5v33h-51q-37 0 -82.5 -1.5t-92.5 -8t-91 -19t-78 -34.5t-55 -54.5t-21 -79.5z" />
<glyph unicode="&#xe1;" horiz-adv-x="1081" d="M72 291q0 85 34 145t89 99.5t124 62t138 33.5t132.5 13.5t106.5 2.5h45v19q0 64 -17 107.5t-47.5 70t-72 38t-90.5 11.5q-60 0 -113 -15.5t-92 -34.5q-46 -22 -84 -50l-82 145q46 34 105 61q51 23 121.5 42.5t160.5 19.5q198 0 304 -104t106 -302v-655h-184v98 q0 17 0.5 32.5t1.5 26.5q1 13 2 23h-4q-27 -58 -73 -103q-20 -19 -45 -37.5t-57.5 -32.5t-71.5 -23t-85 -9q-67 0 -130 20.5t-112.5 60t-79.5 98.5t-30 137zM272 301q0 -32 12.5 -61.5t37 -53t61 -37.5t84.5 -14q63 0 114 30t87 77.5t55.5 106t19.5 116.5v33h-51 q-37 0 -82.5 -1.5t-92.5 -8t-91 -19t-78 -34.5t-55 -54.5t-21 -79.5zM447 1187l149 260h213l-196 -260h-166z" />
<glyph unicode="&#xe2;" horiz-adv-x="1081" d="M72 291q0 85 34 145t89 99.5t124 62t138 33.5t132.5 13.5t106.5 2.5h45v19q0 64 -17 107.5t-47.5 70t-72 38t-90.5 11.5q-60 0 -113 -15.5t-92 -34.5q-46 -22 -84 -50l-82 145q46 34 105 61q51 23 121.5 42.5t160.5 19.5q198 0 304 -104t106 -302v-655h-184v98 q0 17 0.5 32.5t1.5 26.5q1 13 2 23h-4q-27 -58 -73 -103q-20 -19 -45 -37.5t-57.5 -32.5t-71.5 -23t-85 -9q-67 0 -130 20.5t-112.5 60t-79.5 98.5t-30 137zM252 1187l181 260h206l181 -260h-174l-109 164h-4l-107 -164h-174zM272 301q0 -32 12.5 -61.5t37 -53t61 -37.5 t84.5 -14q63 0 114 30t87 77.5t55.5 106t19.5 116.5v33h-51q-37 0 -82.5 -1.5t-92.5 -8t-91 -19t-78 -34.5t-55 -54.5t-21 -79.5z" />
<glyph unicode="&#xe3;" horiz-adv-x="1081" d="M72 291q0 85 34 145t89 99.5t124 62t138 33.5t132.5 13.5t106.5 2.5h45v19q0 64 -17 107.5t-47.5 70t-72 38t-90.5 11.5q-60 0 -113 -15.5t-92 -34.5q-46 -22 -84 -50l-82 145q46 34 105 61q51 23 121.5 42.5t160.5 19.5q198 0 304 -104t106 -302v-655h-184v98 q0 17 0.5 32.5t1.5 26.5q1 13 2 23h-4q-27 -58 -73 -103q-20 -19 -45 -37.5t-57.5 -32.5t-71.5 -23t-85 -9q-67 0 -130 20.5t-112.5 60t-79.5 98.5t-30 137zM193 1189q0 260 209 260q51 0 85.5 -21.5t62 -48t52.5 -48t58 -21.5q23 0 38.5 12.5t24.5 32t13 43t4 45.5h143 q0 -128 -52 -194t-157 -66q-51 0 -85.5 21.5t-62 48t-52.5 48t-58 21.5q-23 0 -38.5 -12t-24.5 -31t-13 -43t-4 -47h-143zM272 301q0 -32 12.5 -61.5t37 -53t61 -37.5t84.5 -14q63 0 114 30t87 77.5t55.5 106t19.5 116.5v33h-51q-37 0 -82.5 -1.5t-92.5 -8t-91 -19 t-78 -34.5t-55 -54.5t-21 -79.5z" />
<glyph unicode="&#xe4;" horiz-adv-x="1081" d="M72 291q0 85 34 145t89 99.5t124 62t138 33.5t132.5 13.5t106.5 2.5h45v19q0 64 -17 107.5t-47.5 70t-72 38t-90.5 11.5q-60 0 -113 -15.5t-92 -34.5q-46 -22 -84 -50l-82 145q46 34 105 61q51 23 121.5 42.5t160.5 19.5q198 0 304 -104t106 -302v-655h-184v98 q0 17 0.5 32.5t1.5 26.5q1 13 2 23h-4q-27 -58 -73 -103q-20 -19 -45 -37.5t-57.5 -32.5t-71.5 -23t-85 -9q-67 0 -130 20.5t-112.5 60t-79.5 98.5t-30 137zM272 301q0 -32 12.5 -61.5t37 -53t61 -37.5t84.5 -14q63 0 114 30t87 77.5t55.5 106t19.5 116.5v33h-51 q-37 0 -82.5 -1.5t-92.5 -8t-91 -19t-78 -34.5t-55 -54.5t-21 -79.5zM285 1240v207h164v-207h-164zM627 1240v207h164v-207h-164z" />
<glyph unicode="&#xe5;" horiz-adv-x="1081" d="M72 291q0 85 34 145t89 99.5t124 62t138 33.5t132.5 13.5t106.5 2.5h45v19q0 64 -17 107.5t-47.5 70t-72 38t-90.5 11.5q-60 0 -113 -15.5t-92 -34.5q-46 -22 -84 -50l-82 145q46 34 105 61q51 23 121.5 42.5t160.5 19.5q198 0 304 -104t106 -302v-655h-184v98 q0 17 0.5 32.5t1.5 26.5q1 13 2 23h-4q-27 -58 -73 -103q-20 -19 -45 -37.5t-57.5 -32.5t-71.5 -23t-85 -9q-67 0 -130 20.5t-112.5 60t-79.5 98.5t-30 137zM272 301q0 -32 12.5 -61.5t37 -53t61 -37.5t84.5 -14q63 0 114 30t87 77.5t55.5 106t19.5 116.5v33h-51 q-37 0 -82.5 -1.5t-92.5 -8t-91 -19t-78 -34.5t-55 -54.5t-21 -79.5zM363 1314q0 36 14 64.5t38 48.5t55.5 30.5t66.5 10.5q34 0 65.5 -10.5t55.5 -30.5t38.5 -48.5t14.5 -64.5q0 -35 -14.5 -63t-38.5 -47.5t-55.5 -30t-65.5 -10.5q-35 0 -66.5 10.5t-55.5 30t-38 47.5 t-14 63zM469 1314q0 -29 18.5 -48t49.5 -19q29 0 48.5 19t19.5 48q0 32 -19.5 52t-48.5 20q-31 0 -49.5 -20t-18.5 -52z" />
<glyph unicode="&#xe6;" horiz-adv-x="1769" d="M74 291q0 81 31 138.5t82 97t116 63.5t134 36.5t135.5 16.5t119.5 4h51v19q0 64 -17 107.5t-48 70t-74 38t-94 11.5q-59 0 -110.5 -15.5t-90.5 -34.5q-46 -22 -84 -50l-80 145q44 34 101 61q49 23 119 42.5t159 19.5q72 0 128 -13t97.5 -37t70.5 -57.5t48 -74.5h4 q62 91 157 136.5t222 45.5q105 0 185.5 -39t135 -107t83 -160t28.5 -198q0 -8 -0.5 -18.5t-1.5 -19.5q-1 -11 -2 -21h-743q4 -88 32 -153.5t74 -109.5t107 -66t131 -22q67 0 122.5 18t97.5 41q48 26 87 60l82 -143q-46 -41 -107 -74q-52 -28 -125.5 -51t-166.5 -23 q-158 0 -271.5 69.5t-175.5 191.5h-4q-5 -14 -17 -38.5t-33 -53.5t-52 -59t-72.5 -54.5t-95.5 -40t-121 -15.5q-71 0 -135.5 21t-113 61.5t-77 99.5t-28.5 134zM276 301q0 -32 12 -62t36.5 -53t61 -37t85.5 -14q64 0 114.5 30t86 78t54.5 107t19 117v31h-96q-58 0 -123.5 -7 t-121 -28.5t-92 -60t-36.5 -101.5zM944 647h539q-2 66 -23 114t-54.5 79.5t-77 47t-91.5 15.5q-57 0 -106 -15.5t-87 -47t-63.5 -80t-36.5 -113.5z" />
<glyph unicode="&#xe7;" horiz-adv-x="1122" d="M84 518q0 115 41 214.5t114.5 172.5t175.5 114.5t224 41.5q98 0 170.5 -23.5t121.5 -52.5q57 -33 97 -76l-94 -139q-34 33 -78 59q-38 23 -90.5 41.5t-118.5 18.5q-78 0 -144 -27.5t-114 -77t-75 -117t-27 -147.5q0 -79 27 -147t75.5 -118.5t115.5 -79t148 -28.5 q72 0 131 22t101 48q49 31 88 70l80 -146q-42 -44 -99 -79q-50 -30 -122 -56.5t-168 -30.5l-17 -77q63 -8 105.5 -46t42.5 -104q0 -48 -18 -80.5t-47.5 -53t-67 -29.5t-76.5 -9q-25 0 -45.5 2t-35.5 5q-18 3 -32 7v119q12 -4 26 -7q12 -3 27.5 -5t32.5 -2q19 0 37 3 t31.5 10.5t21.5 19.5t8 30q0 32 -30 48t-78 16q-8 0 -14.5 -0.5t-11.5 -0.5q-6 -1 -11 -1l41 162q-105 13 -191 58.5t-148 116t-96 162.5t-34 199z" />
<glyph unicode="&#xe8;" horiz-adv-x="1137" d="M84 518q0 124 39.5 224t109 171t164 109.5t205.5 38.5q110 0 194 -38t140.5 -104t85.5 -154.5t29 -189.5q0 -10 -1 -24.5t-3 -28.5q-2 -16 -3 -33h-755q4 -85 34 -149t78.5 -107t111.5 -64.5t132 -21.5q67 0 122.5 18.5t97.5 41.5q48 26 87 61l82 -145q-47 -41 -108 -74 q-52 -28 -125.5 -51t-167.5 -23q-122 0 -223 41.5t-173.5 114.5t-112.5 172.5t-40 214.5zM295 639h553q-2 67 -23 116.5t-54.5 82.5t-78 49t-94.5 16q-57 0 -107.5 -17.5t-90 -51t-67 -82.5t-38.5 -113zM330 1447h213l149 -260h-168z" />
<glyph unicode="&#xe9;" horiz-adv-x="1137" d="M84 518q0 124 39.5 224t109 171t164 109.5t205.5 38.5q110 0 194 -38t140.5 -104t85.5 -154.5t29 -189.5q0 -10 -1 -24.5t-3 -28.5q-2 -16 -3 -33h-755q4 -85 34 -149t78.5 -107t111.5 -64.5t132 -21.5q67 0 122.5 18.5t97.5 41.5q48 26 87 61l82 -145q-47 -41 -108 -74 q-52 -28 -125.5 -51t-167.5 -23q-122 0 -223 41.5t-173.5 114.5t-112.5 172.5t-40 214.5zM295 639h553q-2 67 -23 116.5t-54.5 82.5t-78 49t-94.5 16q-57 0 -107.5 -17.5t-90 -51t-67 -82.5t-38.5 -113zM514 1187l149 260h213l-196 -260h-166z" />
<glyph unicode="&#xea;" horiz-adv-x="1137" d="M84 518q0 124 39.5 224t109 171t164 109.5t205.5 38.5q110 0 194 -38t140.5 -104t85.5 -154.5t29 -189.5q0 -10 -1 -24.5t-3 -28.5q-2 -16 -3 -33h-755q4 -85 34 -149t78.5 -107t111.5 -64.5t132 -21.5q67 0 122.5 18.5t97.5 41.5q48 26 87 61l82 -145q-47 -41 -108 -74 q-52 -28 -125.5 -51t-167.5 -23q-122 0 -223 41.5t-173.5 114.5t-112.5 172.5t-40 214.5zM295 639h553q-2 67 -23 116.5t-54.5 82.5t-78 49t-94.5 16q-57 0 -107.5 -17.5t-90 -51t-67 -82.5t-38.5 -113zM317 1187l181 260h206l181 -260h-174l-109 164h-4l-107 -164h-174z " />
<glyph unicode="&#xeb;" horiz-adv-x="1137" d="M84 518q0 124 39.5 224t109 171t164 109.5t205.5 38.5q110 0 194 -38t140.5 -104t85.5 -154.5t29 -189.5q0 -10 -1 -24.5t-3 -28.5q-2 -16 -3 -33h-755q4 -85 34 -149t78.5 -107t111.5 -64.5t132 -21.5q67 0 122.5 18.5t97.5 41.5q48 26 87 61l82 -145q-47 -41 -108 -74 q-52 -28 -125.5 -51t-167.5 -23q-122 0 -223 41.5t-173.5 114.5t-112.5 172.5t-40 214.5zM295 639h553q-2 67 -23 116.5t-54.5 82.5t-78 49t-94.5 16q-57 0 -107.5 -17.5t-90 -51t-67 -82.5t-38.5 -113zM350 1240v207h164v-207h-164zM692 1240v207h164v-207h-164z" />
<glyph unicode="&#xec;" horiz-adv-x="510" d="M-17 1447h213l149 -260h-168zM156 0v1036h198v-1036h-198z" />
<glyph unicode="&#xed;" horiz-adv-x="510" d="M156 0v1036h198v-1036h-198zM169 1187l149 260h213l-196 -260h-166z" />
<glyph unicode="&#xee;" horiz-adv-x="510" d="M-26 1187l181 260h206l181 -260h-174l-109 164h-4l-107 -164h-174zM156 0v1036h198v-1036h-198z" />
<glyph unicode="&#xef;" horiz-adv-x="510" d="M5 1240v207h164v-207h-164zM156 0v1036h198v-1036h-198zM347 1240v207h164v-207h-164z" />
<glyph unicode="&#xf0;" horiz-adv-x="1206" d="M88 481q0 91 31.5 176t93 151t152 106t208.5 40q62 0 108.5 -13.5t78.5 -29.5q37 -19 65 -43h4q-32 87 -89.5 154.5t-133.5 118.5l-370 -164l-21 127l254 113q-62 30 -129 54t-135 40l55 162q110 -25 217.5 -65.5t206.5 -98.5l285 125l18 -125l-188 -86 q64 -54 118.5 -122t93.5 -150t61 -179t22 -209q0 -69 -12.5 -139.5t-39.5 -135.5t-68.5 -122.5t-99.5 -99.5t-133 -66.5t-168 -24.5q-117 0 -207 43t-152 114t-94 162t-32 187zM289 477q0 -63 18.5 -122.5t54.5 -105.5t90 -74t126 -28q84 0 143 35t97 89.5t55.5 122.5 t17.5 134q0 58 -20.5 107t-58 84.5t-91 55.5t-119.5 20q-80 0 -139 -27t-97.5 -72t-57.5 -102t-19 -117z" />
<glyph unicode="&#xf1;" horiz-adv-x="1235" d="M156 0v1036h192v-137q0 -16 -0.5 -29t-1.5 -24q-1 -12 -2 -23h4q15 34 46 75.5t79 77.5t114 60.5t150 24.5q184 0 270.5 -99t86.5 -298v-664h-199v618q0 55 -7.5 102.5t-29 82.5t-60 55.5t-100.5 20.5q-59 0 -111.5 -18.5t-95 -52.5t-73.5 -80.5t-47 -102.5 q-10 -31 -13.5 -66t-3.5 -74v-485h-198zM297 1189q0 260 209 260q51 0 85.5 -21.5t62 -48t52.5 -48t58 -21.5q23 0 38.5 12.5t24.5 32t13 43t4 45.5h143q0 -128 -52 -194t-157 -66q-51 0 -85.5 21.5t-62 48t-52.5 48t-58 21.5q-23 0 -38.5 -12t-24.5 -31t-13 -43t-4 -47 h-143z" />
<glyph unicode="&#xf2;" horiz-adv-x="1278" d="M80 520q0 118 44 217t119.5 171t177.5 112.5t218 40.5t218 -40.5t177.5 -112.5t119.5 -171t44 -217t-44 -218t-119.5 -172.5t-177.5 -113.5t-218 -41t-218 41t-177.5 113.5t-119.5 172.5t-44 218zM283 520q0 -81 28 -149.5t76.5 -118t113.5 -77.5t138 -28q74 0 139 28 t113 77.5t76 118t28 149.5t-28 148.5t-76 116.5t-113 76.5t-139 27.5q-73 0 -138 -27.5t-113.5 -76.5t-76.5 -116.5t-28 -148.5zM365 1447h213l149 -260h-168z" />
<glyph unicode="&#xf3;" horiz-adv-x="1278" d="M80 520q0 118 44 217t119.5 171t177.5 112.5t218 40.5t218 -40.5t177.5 -112.5t119.5 -171t44 -217t-44 -218t-119.5 -172.5t-177.5 -113.5t-218 -41t-218 41t-177.5 113.5t-119.5 172.5t-44 218zM283 520q0 -81 28 -149.5t76.5 -118t113.5 -77.5t138 -28q74 0 139 28 t113 77.5t76 118t28 149.5t-28 148.5t-76 116.5t-113 76.5t-139 27.5q-73 0 -138 -27.5t-113.5 -76.5t-76.5 -116.5t-28 -148.5zM551 1187l149 260h213l-196 -260h-166z" />
<glyph unicode="&#xf4;" horiz-adv-x="1278" d="M80 520q0 118 44 217t119.5 171t177.5 112.5t218 40.5t218 -40.5t177.5 -112.5t119.5 -171t44 -217t-44 -218t-119.5 -172.5t-177.5 -113.5t-218 -41t-218 41t-177.5 113.5t-119.5 172.5t-44 218zM283 520q0 -81 28 -149.5t76.5 -118t113.5 -77.5t138 -28q74 0 139 28 t113 77.5t76 118t28 149.5t-28 148.5t-76 116.5t-113 76.5t-139 27.5q-73 0 -138 -27.5t-113.5 -76.5t-76.5 -116.5t-28 -148.5zM356 1187l181 260h206l181 -260h-174l-109 164h-4l-107 -164h-174z" />
<glyph unicode="&#xf5;" horiz-adv-x="1278" d="M80 520q0 118 44 217t119.5 171t177.5 112.5t218 40.5t218 -40.5t177.5 -112.5t119.5 -171t44 -217t-44 -218t-119.5 -172.5t-177.5 -113.5t-218 -41t-218 41t-177.5 113.5t-119.5 172.5t-44 218zM283 520q0 -81 28 -149.5t76.5 -118t113.5 -77.5t138 -28q74 0 139 28 t113 77.5t76 118t28 149.5t-28 148.5t-76 116.5t-113 76.5t-139 27.5q-73 0 -138 -27.5t-113.5 -76.5t-76.5 -116.5t-28 -148.5zM295 1189q0 260 209 260q51 0 85.5 -21.5t62 -48t52.5 -48t58 -21.5q23 0 38.5 12.5t24.5 32t13 43t4 45.5h143q0 -128 -52 -194t-157 -66 q-51 0 -85.5 21.5t-62 48t-52.5 48t-58 21.5q-23 0 -38.5 -12t-24.5 -31t-13 -43t-4 -47h-143z" />
<glyph unicode="&#xf6;" horiz-adv-x="1278" d="M80 520q0 118 44 217t119.5 171t177.5 112.5t218 40.5t218 -40.5t177.5 -112.5t119.5 -171t44 -217t-44 -218t-119.5 -172.5t-177.5 -113.5t-218 -41t-218 41t-177.5 113.5t-119.5 172.5t-44 218zM283 520q0 -81 28 -149.5t76.5 -118t113.5 -77.5t138 -28q74 0 139 28 t113 77.5t76 118t28 149.5t-28 148.5t-76 116.5t-113 76.5t-139 27.5q-73 0 -138 -27.5t-113.5 -76.5t-76.5 -116.5t-28 -148.5zM387 1240v207h164v-207h-164zM729 1240v207h164v-207h-164z" />
<glyph unicode="&#xf7;" horiz-adv-x="1300" d="M133 504v160h1034v-160h-1034zM553 90v186h192v-186h-192zM553 891v186h192v-186h-192z" />
<glyph unicode="&#xf8;" horiz-adv-x="1278" d="M80 520q0 118 44 217t119.5 171t177.5 112.5t218 40.5q75 0 145 -18t131 -50l82 113l97 -70l-80 -110q85 -73 134.5 -177t49.5 -229q0 -118 -44 -218t-119.5 -172.5t-177.5 -113.5t-218 -41q-71 0 -137 16t-125 44l-80 -113l-98 72l75 106q-89 73 -141.5 181t-52.5 239z M283 520q0 -81 27 -149t75 -117l426 592q-38 20 -82 31.5t-90 11.5q-73 0 -138 -27.5t-113.5 -76.5t-76.5 -116.5t-28 -148.5zM483 182q35 -17 74.5 -26t81.5 -9q74 0 139 28t113 77.5t76 118t28 149.5q0 76 -24 139t-68 111z" />
<glyph unicode="&#xf9;" horiz-adv-x="1225" d="M141 373v663h199v-618q0 -54 7 -101t28 -82t59.5 -55t100.5 -20q79 0 141 32.5t105 86.5t66 124.5t23 147.5v485h199v-1036h-192v137q0 16 0.5 29.5t1.5 24.5q1 12 2 22h-4q-16 -38 -49 -80t-81.5 -77t-111.5 -58t-139 -23q-176 0 -265.5 96t-89.5 302zM332 1447h213 l149 -260h-168z" />
<glyph unicode="&#xfa;" horiz-adv-x="1225" d="M141 373v663h199v-618q0 -54 7 -101t28 -82t59.5 -55t100.5 -20q79 0 141 32.5t105 86.5t66 124.5t23 147.5v485h199v-1036h-192v137q0 16 0.5 29.5t1.5 24.5q1 12 2 22h-4q-16 -38 -49 -80t-81.5 -77t-111.5 -58t-139 -23q-176 0 -265.5 96t-89.5 302zM516 1187l149 260 h213l-196 -260h-166z" />
<glyph unicode="&#xfb;" horiz-adv-x="1225" d="M141 373v663h199v-618q0 -54 7 -101t28 -82t59.5 -55t100.5 -20q79 0 141 32.5t105 86.5t66 124.5t23 147.5v485h199v-1036h-192v137q0 16 0.5 29.5t1.5 24.5q1 12 2 22h-4q-16 -38 -49 -80t-81.5 -77t-111.5 -58t-139 -23q-176 0 -265.5 96t-89.5 302zM321 1187l181 260 h206l181 -260h-174l-109 164h-4l-107 -164h-174z" />
<glyph unicode="&#xfc;" horiz-adv-x="1225" d="M141 373v663h199v-618q0 -54 7 -101t28 -82t59.5 -55t100.5 -20q79 0 141 32.5t105 86.5t66 124.5t23 147.5v485h199v-1036h-192v137q0 16 0.5 29.5t1.5 24.5q1 12 2 22h-4q-16 -38 -49 -80t-81.5 -77t-111.5 -58t-139 -23q-176 0 -265.5 96t-89.5 302zM354 1240v207h164 v-207h-164zM696 1240v207h164v-207h-164z" />
<glyph unicode="&#xfd;" horiz-adv-x="1044" d="M4 1036h223l260 -678q8 -20 15 -41.5t12 -40.5q6 -22 12 -43h4q5 21 11 42q5 18 11 39.5t13 41.5l252 680h215l-485 -1222q-24 -60 -59 -105.5t-78.5 -76.5t-94 -46.5t-104.5 -15.5q-45 0 -81 9.5t-63 21.5q-32 14 -57 32l70 152q17 -12 36 -22q17 -8 39 -14.5t46 -6.5 q60 0 108.5 40t77.5 112l51 118zM441 1187l149 260h213l-196 -260h-166z" />
<glyph unicode="&#xfe;" horiz-adv-x="1229" d="M156 -410v1856h198v-471q0 -20 -0.5 -35.5t-0.5 -26.5q-1 -13 -1 -24h4q10 11 31.5 39t60 57.5t96 52.5t138.5 23q106 0 191.5 -40.5t145.5 -112.5t92 -172t32 -218q0 -120 -34.5 -219.5t-96.5 -171.5t-147.5 -112t-188.5 -40q-45 0 -82.5 7t-68 19t-55.5 27.5t-44 31.5 q-45 37 -72 85h-4q1 -11 2 -25q1 -12 1.5 -28.5t0.5 -36.5v-465h-198zM348 516q0 -80 21 -147.5t59.5 -117t93.5 -77t123 -27.5q63 0 117 26.5t93.5 75.5t62 117t22.5 152q0 82 -21 150.5t-59.5 117.5t-92 76t-118.5 27q-59 0 -113.5 -20.5t-96 -65.5t-66.5 -116t-25 -171z " />
<glyph unicode="&#xff;" horiz-adv-x="1044" d="M4 1036h223l260 -678q8 -20 15 -41.5t12 -40.5q6 -22 12 -43h4q5 21 11 42q5 18 11 39.5t13 41.5l252 680h215l-485 -1222q-24 -60 -59 -105.5t-78.5 -76.5t-94 -46.5t-104.5 -15.5q-45 0 -81 9.5t-63 21.5q-32 14 -57 32l70 152q17 -12 36 -22q17 -8 39 -14.5t46 -6.5 q60 0 108.5 40t77.5 112l51 118zM276 1240v207h164v-207h-164zM618 1240v207h164v-207h-164z" />
<glyph unicode="&#x152;" horiz-adv-x="1966" d="M98 725q0 156 57 291t157.5 234.5t237 156.5t296.5 57q75 0 136.5 -9t115.5 -9h733v-176h-639v-453h520v-176h-520v-465h676v-176h-768q-54 0 -116.5 -9t-137.5 -9q-160 0 -296.5 57.5t-237 157.5t-157.5 235.5t-57 292.5zM307 725q0 -120 39.5 -223.5t110.5 -180 t170.5 -120t218.5 -43.5q31 0 57 2t46 5q23 3 42 7v1102q-19 4 -42 8q-20 3 -46 5.5t-57 2.5q-119 0 -218.5 -44t-170.5 -120.5t-110.5 -179.5t-39.5 -221z" />
<glyph unicode="&#x153;" horiz-adv-x="2048" d="M82 516q0 123 44 223.5t119.5 172t176 110.5t213.5 39q77 0 144 -17.5t123 -49.5t101.5 -77.5t79.5 -101.5h4q62 116 169.5 181t256.5 65q110 0 194 -38t140.5 -104t85.5 -154.5t29 -189.5q0 -10 -1 -24.5t-2 -28.5q-2 -16 -3 -33h-756q6 -86 37.5 -150t79.5 -107 t109.5 -64t129.5 -21q67 0 123 18.5t98 41.5q48 26 87 61l82 -145q-47 -41 -108 -74q-53 -28 -126.5 -51t-167.5 -23q-81 0 -149.5 18t-125.5 51t-101.5 79.5t-75.5 103.5h-5q-33 -57 -78.5 -103.5t-102.5 -79.5t-125 -51t-146 -18q-113 0 -213.5 38.5t-176 109 t-119.5 170.5t-44 223zM285 516q0 -84 28 -152.5t76.5 -116.5t113 -74t136.5 -26t136.5 26t113.5 75t77.5 118t28.5 156q0 84 -29 151.5t-78 115.5t-113.5 74t-135.5 26q-72 0 -136.5 -26.5t-113 -75.5t-76.5 -118t-28 -153zM1206 639h553q-2 66 -22.5 115.5t-53.5 82.5 t-77.5 49.5t-94.5 16.5q-57 0 -108 -17.5t-91 -51t-67.5 -82.5t-38.5 -113z" />
<glyph unicode="&#x178;" horiz-adv-x="1204" d="M16 1446h230l268 -475q17 -30 33 -62.5t28 -59.5q14 -32 27 -61h4q13 29 27 61q12 26 28 58.5t33 63.5l264 475h230l-483 -834v-612h-203v612zM344 1599v207h164v-207h-164zM686 1599v207h164v-207h-164z" />
<glyph unicode="&#x2c6;" horiz-adv-x="1022" d="M227 1546l181 260h206l181 -260h-174l-109 164h-4l-107 -164h-174z" />
<glyph unicode="&#x2dc;" horiz-adv-x="1022" d="M166 1548q0 260 209 260q51 0 85.5 -21.5t62 -48t52.5 -48t58 -21.5q23 0 38.5 12.5t24.5 32t13 43t4 45.5h143q0 -128 -52 -194t-157 -66q-51 0 -85.5 21.5t-62 48t-52.5 48t-58 21.5q-23 0 -38.5 -12t-24.5 -31t-13 -43t-4 -47h-143z" />
<glyph unicode="&#x2000;" horiz-adv-x="913" />
<glyph unicode="&#x2001;" horiz-adv-x="1827" />
<glyph unicode="&#x2002;" horiz-adv-x="913" />
<glyph unicode="&#x2003;" horiz-adv-x="1827" />
<glyph unicode="&#x2004;" horiz-adv-x="609" />
<glyph unicode="&#x2005;" horiz-adv-x="456" />
<glyph unicode="&#x2006;" horiz-adv-x="304" />
<glyph unicode="&#x2007;" horiz-adv-x="304" />
<glyph unicode="&#x2008;" horiz-adv-x="228" />
<glyph unicode="&#x2009;" horiz-adv-x="365" />
<glyph unicode="&#x200a;" horiz-adv-x="101" />
<glyph unicode="&#x2010;" horiz-adv-x="967" d="M184 496v176h598v-176h-598z" />
<glyph unicode="&#x2011;" horiz-adv-x="967" d="M184 496v176h598v-176h-598z" />
<glyph unicode="&#x2012;" horiz-adv-x="967" d="M184 496v176h598v-176h-598z" />
<glyph unicode="&#x2013;" horiz-adv-x="1446" d="M184 504v160h1078v-160h-1078z" />
<glyph unicode="&#x2014;" horiz-adv-x="1855" d="M184 504v160h1487v-160h-1487z" />
<glyph unicode="&#x2018;" horiz-adv-x="465" d="M100 1069l136 399h145l-88 -399h-193z" />
<glyph unicode="&#x2019;" horiz-adv-x="449" d="M104 1071l89 399h192l-133 -399h-148z" />
<glyph unicode="&#x201a;" horiz-adv-x="500" d="M86 -184l88 399h186l-133 -399h-141z" />
<glyph unicode="&#x201c;" horiz-adv-x="756" d="M100 1069l136 399h147l-88 -399h-195zM389 1069l135 399h148l-88 -399h-195z" />
<glyph unicode="&#x201d;" horiz-adv-x="737" d="M104 1071l89 399h194l-135 -399h-148zM393 1071l88 399h195l-133 -399h-150z" />
<glyph unicode="&#x201e;" horiz-adv-x="784" d="M86 -184l88 399h186l-133 -399h-141zM369 -184l88 399h188l-133 -399h-143z" />
<glyph unicode="&#x2022;" horiz-adv-x="842" d="M104 596q0 66 25 124t68 100.5t101 67.5t124 25q65 0 122.5 -25t100 -67.5t67.5 -100.5t25 -124t-25 -124t-67.5 -100.5t-100 -67.5t-122.5 -25q-66 0 -124 25t-101 67.5t-68 100.5t-25 124z" />
<glyph unicode="&#x2026;" horiz-adv-x="1577" d="M156 0v211h202v-211h-202zM686 0v211h205v-211h-205zM1219 0v211h202v-211h-202z" />
<glyph unicode="&#x202f;" horiz-adv-x="365" />
<glyph unicode="&#x2039;" horiz-adv-x="727" d="M90 578l336 421h199l-336 -421l336 -420h-199z" />
<glyph unicode="&#x203a;" horiz-adv-x="727" d="M102 158l336 420l-336 421h199l336 -421l-336 -420h-199z" />
<glyph unicode="&#x205f;" horiz-adv-x="456" />
<glyph unicode="&#x20ac;" horiz-adv-x="1210" d="M78 528v129h112q-2 14 -3 32.5t-1 38.5t1 40t3 37h-112v131h137q31 117 95.5 215t154.5 169t202.5 110.5t239.5 39.5q43 0 81 -3.5t66 -8.5q33 -5 60 -12l-49 -186q-23 6 -49 11q-23 4 -52 7.5t-61 3.5q-86 0 -161 -24.5t-136 -70t-106 -109.5t-70 -142h576l-27 -131 h-578q-6 -34 -6.5 -73t4.5 -75h553l-26 -129h-492q24 -81 69.5 -147t107.5 -113.5t138 -73.5t162 -26q38 0 72 4t60 9q30 6 55 14l39 -185q-30 -10 -66 -18q-31 -7 -73 -12t-91 -5q-131 0 -245 40.5t-204 114t-153.5 175t-91.5 223.5h-135z" />
<glyph unicode="&#x2122;" horiz-adv-x="1925" d="M47 1309v137h778v-137h-311v-764h-156v764h-311zM891 545l72 901h141l213 -471q6 -14 11 -29t9 -28q4 -15 9 -29h4q4 14 8 29q4 13 8.5 28t9.5 29l213 471h144l69 -901h-153l-43 538q-2 24 0 43q1 11 2 19h-4l-195 -434h-125l-194 434h-5q1 -8 2 -19q2 -19 0 -43 l-43 -538h-153z" />
<glyph unicode="&#x25fc;" horiz-adv-x="1035" d="M0 0v1035h1035v-1035h-1035z" />
</font>
</defs>
</svg>
