<?xml version="1.0" standalone="no"?>
<!DOCTYPE svg PUBLIC "-//W3C//DTD SVG 1.1//EN" "http://www.w3.org/Graphics/SVG/1.1/DTD/svg11.dtd" >
<svg xmlns="http://www.w3.org/2000/svg" xmlns:xlink="http://www.w3.org/1999/xlink" version="1.1">
<metadata></metadata>
<defs>
<font id="museo_sans300" horiz-adv-x="1065" >
<font-face units-per-em="2048" ascent="1638" descent="-410" />
<missing-glyph horiz-adv-x="551" />
<glyph unicode="&#xfb01;" horiz-adv-x="1130" d="M86 913v117h129v37q0 85 18.5 146.5t48 104t68 68.5t78 40t77 19t66.5 5q14 0 26.5 -0.5t20.5 -1.5q10 -1 17 -2v-125q-6 1 -14 2q-7 1 -15.5 1.5t-19.5 0.5q-30 0 -70 -8t-76 -35t-61 -78t-25 -137v-37h609v-1030h-140v913h-469v-913h-139v913h-129zM819 1266v174h146 v-174h-146z" />
<glyph unicode="&#xfb02;" horiz-adv-x="1161" d="M86 901v117h129v49q0 85 18.5 146.5t48 104t68 68.5t78 40t77 19t66.5 5q14 0 26.5 -0.5t20.5 -1.5q10 -1 17 -2v-125q-6 1 -14 2q-7 1 -15.5 1.5t-19.5 0.5q-30 0 -70 -8t-76 -35t-61 -78t-25 -137v-49h264v-117h-264v-901h-139v901h-129zM813 244v1196h139v-1166 q0 -51 10.5 -81.5t27 -47t37 -21.5t40.5 -5h13t11 1q5 0 10 1v-125q-7 -1 -15 -2q-7 -1 -16.5 -1.5t-19.5 -0.5q-32 0 -73 7.5t-77.5 33.5t-61.5 76t-25 135z" />
<glyph unicode="&#xfb03;" horiz-adv-x="1786" d="M86 913v117h129v37q0 85 18.5 146.5t48 104t68 68.5t78 40t77 19t66.5 5q14 0 26.5 -0.5t20.5 -1.5q10 -1 17 -2v-125q-6 1 -14 2q-7 1 -15.5 1.5t-19.5 0.5q-30 0 -70 -8t-76 -35t-61 -78t-25 -137v-37h516v37q0 85 18.5 146.5t48 104t68 68.5t78 40t77.5 19t67 5 q14 0 26 -0.5t20 -1.5q10 -1 17 -2v-125q-6 1 -14 2q-7 1 -15.5 1.5t-19.5 0.5q-30 0 -70 -8t-75.5 -35t-60.5 -78t-25 -137v-37h608v-1030h-139v913h-469v-913h-140v913h-516v-913h-139v913h-129zM1475 1266v174h145v-174h-145z" />
<glyph unicode="&#xfb04;" horiz-adv-x="1817" d="M86 913v117h129v37q0 85 18.5 146.5t48 104t68 68.5t78 40t77 19t66.5 5q14 0 26.5 -0.5t20.5 -1.5q10 -1 17 -2v-125q-6 1 -14 2q-7 1 -15.5 1.5t-19.5 0.5q-30 0 -70 -8t-76 -35t-61 -78t-25 -137v-37h516v37q0 85 18.5 146.5t48 104t68 68.5t78 40t77.5 19t67 5 q14 0 26 -0.5t20 -1.5q10 -1 17 -2v-125q-6 1 -14 2q-7 1 -15.5 1.5t-19.5 0.5q-30 0 -70 -8t-75.5 -35t-60.5 -78t-25 -137v-37h264v-117h-264v-913h-140v913h-516v-913h-139v913h-129zM1468 244v1196h140v-1166q0 -51 10.5 -81.5t27 -47t36.5 -21.5t40 -5h13.5t11.5 1 q5 0 10 1v-125q-7 -1 -15 -2q-7 -1 -16.5 -1.5t-19.5 -0.5q-32 0 -73.5 7.5t-78 33.5t-61.5 76t-25 135z" />
<glyph horiz-adv-x="0" />
<glyph unicode="&#xd;" horiz-adv-x="551" />
<glyph unicode=" "  horiz-adv-x="551" />
<glyph unicode="&#x09;" horiz-adv-x="551" />
<glyph unicode="&#xa0;" horiz-adv-x="551" />
<glyph unicode="!" horiz-adv-x="629" d="M238 0v158h157v-158h-157zM242 1440h143l-6 -1063h-131z" />
<glyph unicode="&#x22;" horiz-adv-x="651" d="M141 1114v346h121v-346h-121zM389 1114v346h121v-346h-121z" />
<glyph unicode="#" horiz-adv-x="1483" d="M96 399l21 115h289l71 401h-289l19 115h291l71 410h125l-71 -410h354l72 410h125l-72 -410h287l-21 -115h-287l-69 -401h284l-18 -115h-287l-69 -399h-125l69 399h-354l-70 -399h-125l70 399h-291zM532 514h353l71 401h-354z" />
<glyph unicode="$" horiz-adv-x="1141" d="M125 160l86 108q45 -45 103 -79q50 -29 119 -53.5t155 -24.5q59 0 111 17t91 49.5t61.5 78.5t22.5 104q0 66 -31 113.5t-82 85t-116 67.5t-133 60t-133 64t-116 79.5t-82 105.5t-31 142q0 71 27 135.5t76 115.5t118.5 85t154.5 45v195h115v-191q83 -5 146.5 -26.5 t107.5 -46.5q51 -29 88 -64l-70 -119q-40 34 -88 61q-42 23 -99.5 42.5t-127.5 19.5t-126 -21t-95.5 -55.5t-60.5 -79t-21 -92.5q0 -62 31 -106.5t82 -79t116 -63t132.5 -58.5t132.5 -65t116 -82.5t82 -111t31 -150.5q0 -75 -25.5 -141t-74.5 -117.5t-119 -85t-158 -41.5 v-191h-115v191q-49 4 -92 13.5t-80.5 22.5t-69 29t-56.5 32q-60 37 -103 83z" />
<glyph unicode="%" horiz-adv-x="1495" d="M115 1180q0 58 22.5 109.5t61 90.5t90.5 61.5t112 22.5t112.5 -22.5t92 -61.5t62 -90.5t22.5 -109.5q0 -59 -22.5 -111t-62 -90.5t-92 -61t-112.5 -22.5t-112 22.5t-90.5 61t-61 90.5t-22.5 111zM127 0l1098 1440h145l-1096 -1440h-147zM236 1180q0 -36 12.5 -67 t34.5 -54t52.5 -36t65.5 -13q36 0 66.5 13t53 36t35.5 54t13 67q0 34 -13 65t-35.5 54.5t-53 37t-66.5 13.5q-35 0 -65.5 -13.5t-52.5 -37t-34.5 -54.5t-12.5 -65zM807 258q0 59 22.5 111.5t61 91.5t91 61.5t112.5 22.5t112.5 -22.5t91.5 -61.5t61.5 -91.5t22.5 -111.5 t-22.5 -110.5t-61.5 -89.5t-91.5 -60.5t-112.5 -22.5t-112.5 22.5t-91 60.5t-61 89.5t-22.5 110.5zM930 260q0 -35 12.5 -66t34 -54t51.5 -36.5t66 -13.5q35 0 66 13.5t53.5 36.5t35.5 54t13 66q0 34 -13 65t-35.5 54.5t-53.5 37t-66 13.5q-36 0 -66 -13.5t-51.5 -37 t-34 -54.5t-12.5 -65z" />
<glyph unicode="&#x26;" horiz-adv-x="1380" d="M123 397q0 62 17.5 122t50.5 110.5t82 89t112 57.5v4q-57 22 -101 64q-19 18 -37 42t-32 55.5t-22.5 71t-8.5 87.5q0 83 30.5 150t87 114.5t136.5 73.5t178 26q26 0 55 -3t53 -7q28 -4 56 -10l-41 -119q-20 3 -40 7q-17 2 -38 4.5t-40 2.5q-61 0 -113.5 -17t-91.5 -48.5 t-61.5 -77.5t-22.5 -104q0 -24 4.5 -53t16.5 -58t33 -56t55.5 -48t83.5 -33.5t116 -12.5h303v203h141v-203h195v-126h-195v-211q0 -129 -34 -226t-96 -162.5t-150.5 -98t-196.5 -32.5t-197.5 32.5t-153.5 89t-99 133.5t-35 167zM268 406q0 -62 23 -116t67 -94t107 -63.5 t143 -23.5q76 0 138 22t106 69t68 120.5t24 177.5v207h-303q-94 0 -164 -21.5t-116.5 -60.5t-69.5 -94.5t-23 -122.5z" />
<glyph unicode="'" horiz-adv-x="403" d="M141 1114v346h121v-346h-121z" />
<glyph unicode="(" horiz-adv-x="594" d="M164 690q0 223 60 423.5t171 381.5h129q-111 -189 -171 -388.5t-60 -416.5q0 -232 58 -454t173 -431h-129q-54 92 -96.5 196.5t-72.5 217t-46 231.5t-16 240z" />
<glyph unicode=")" horiz-adv-x="592" d="M70 -195q117 209 174 431t57 454q0 217 -60 416.5t-171 388.5h129q111 -181 171 -381.5t60 -423.5q0 -121 -16 -240t-46 -231.5t-72.5 -217t-96.5 -196.5h-129z" />
<glyph unicode="*" horiz-adv-x="965" d="M88 1104l41 129l295 -109l-12 316h139l-14 -316l299 107l41 -125l-304 -88v-4l193 -246l-107 -80l-176 260h-4l-174 -258l-108 78l192 246v4z" />
<glyph unicode="+" horiz-adv-x="1409" d="M170 522v119h473v522h125v-522h471v-119h-471v-522h-125v522h-473z" />
<glyph unicode="," horiz-adv-x="500" d="M74 -199l116 367h154l-151 -367h-119z" />
<glyph unicode="-" horiz-adv-x="1008" d="M213 518v127h582v-127h-582z" />
<glyph unicode="." horiz-adv-x="506" d="M172 0v164h162v-164h-162z" />
<glyph unicode="/" horiz-adv-x="803" d="M84 -86l520 1606h129l-518 -1606h-131z" />
<glyph unicode="0" horiz-adv-x="1280" d="M143 721q0 155 25 290.5t83.5 236t153.5 158.5t236 58t236 -58t152.5 -158.5t82.5 -236t25 -290.5q0 -157 -25 -293t-82.5 -236.5t-152.5 -158.5t-236 -58q-94 0 -167 26t-128.5 74.5t-94 116t-62.5 150.5t-35 179t-11 200zM291 721q0 -129 16 -241t56 -194.5 t107.5 -129.5t170.5 -47q102 0 169 47t107 129.5t56 194.5t16 241q0 128 -16 239.5t-56 194t-107 129.5t-169 47q-103 0 -170.5 -47t-107.5 -129.5t-56 -194t-16 -239.5z" />
<glyph unicode="1" horiz-adv-x="954" d="M115 0v127h323v1057v29.5t1 25.5q0 13 1 25h-4q-4 -9 -14 -22q-8 -11 -22 -27.5t-35 -36.5l-154 -154l-90 92l325 324h132v-1313h317v-127h-780z" />
<glyph unicode="2" horiz-adv-x="1157" d="M123 92q0 95 31.5 170.5t83.5 138t118 115t135.5 101t135.5 95t118 98t83.5 111t31.5 132.5q0 59 -21.5 109.5t-60.5 87.5t-94.5 58t-122.5 21q-40 0 -75 -8.5t-65 -22t-55 -31.5t-45 -36q-48 -43 -81 -98l-107 71q42 73 104 130q27 24 60.5 47.5t74.5 42t90.5 29.5 t106.5 11q103 0 184.5 -31.5t138 -86t86.5 -128t30 -157.5q0 -91 -31 -163.5t-82.5 -132.5t-117 -111t-133.5 -97.5t-133.5 -93t-117 -97t-83 -109t-31.5 -130.5h751v-127h-899q-5 25 -6.5 47.5t-1.5 44.5z" />
<glyph unicode="3" horiz-adv-x="1151" d="M92 172l86 109q45 -48 102 -85q24 -16 53.5 -31.5t63 -27.5t71 -19t79.5 -7q64 0 124 22.5t105.5 64t73 98.5t27.5 126q0 76 -30.5 133.5t-80.5 96t-116 58t-136 19.5h-98l-35 84l360 422q14 17 28 31.5t25 25.5l23 23v4q-12 -2 -30 -3q-30 -3 -87 -3h-540v127h841v-94 l-430 -496q46 -3 97 -13.5t101 -31.5t96 -54t81 -79t55.5 -107t20.5 -139q0 -92 -35.5 -174t-99 -143.5t-150 -97.5t-188.5 -36q-53 0 -101 8.5t-90 22t-78 31.5t-66 36q-70 43 -122 99z" />
<glyph unicode="4" horiz-adv-x="1223" d="M70 399v93l708 948h154v-916h205v-125h-205v-399h-141v399h-721zM242 524h549v602q0 23 0.5 47t2.5 44q1 23 3 45h-4q-10 -17 -21 -35q-10 -16 -23.5 -35.5t-27.5 -38.5l-479 -625v-4z" />
<glyph unicode="5" horiz-adv-x="1143" d="M111 180l90 99q32 -47 80 -84q20 -16 45.5 -31t56 -27t66.5 -19t77 -7q75 0 140 25t114 70t77 107t28 136q0 73 -28 135t-77.5 107t-116 70t-143.5 25q-58 0 -105.5 -12.5t-82.5 -26.5q-40 -17 -74 -38l-90 32l78 699h696v-127h-573l-41 -369q-2 -20 -5 -34.5t-5 -25.5 q-3 -12 -5 -22h4q28 16 62 28q29 11 69 19.5t89 8.5q108 0 199 -36.5t156.5 -100.5t102.5 -149.5t37 -182.5q0 -100 -38.5 -186.5t-106 -150.5t-159 -100.5t-196.5 -36.5q-54 0 -100.5 9t-86.5 23t-72.5 32.5t-58.5 37.5q-62 45 -103 103z" />
<glyph unicode="6" horiz-adv-x="1219" d="M133 651q0 90 16 185.5t49.5 186t84.5 170.5t121.5 140.5t160.5 95.5t201 35q60 0 108.5 -9.5t83.5 -20.5q40 -13 72 -29l-53 -125q-27 14 -60 25q-28 10 -66 18t-83 8q-75 0 -138 -23.5t-114.5 -64t-91 -96t-67.5 -119.5t-45 -134t-23 -140h4q26 38 65 69t87 53t102 34 t110 12q99 0 181.5 -34.5t142 -96t92.5 -147t33 -187.5q0 -112 -35.5 -201.5t-96.5 -151.5t-144 -95.5t-177 -33.5q-117 0 -213 51t-164.5 141t-105.5 214t-37 270zM287 549q0 -48 12 -99.5t34.5 -100.5t55 -92.5t73 -76.5t88 -52t101.5 -19q73 0 130.5 26t97.5 72.5 t61 109.5t21 138q0 76 -23.5 139t-66 107.5t-103 69t-133.5 24.5q-72 0 -135.5 -22t-111 -57t-74.5 -79t-27 -88z" />
<glyph unicode="7" d="M78 1313v127h936v-99l-668 -1341h-147l581 1180q14 29 29 53t26 42q13 21 25 38v4q-11 -1 -27 -2q-14 -1 -34.5 -1.5t-46.5 -0.5h-674z" />
<glyph unicode="8" horiz-adv-x="1233" d="M131 414q0 58 15 108t38.5 92t52 75.5t54.5 58t47 39.5t29 20q-39 25 -71.5 54.5t-56.5 65.5t-37.5 79t-13.5 94q0 70 27 135.5t81.5 116.5t136 81.5t190.5 30.5q100 0 181.5 -27t139 -76t88.5 -118t31 -153q0 -51 -12 -99t-30 -89.5t-40 -77t-41.5 -61.5t-34 -42.5 t-18.5 -20.5q45 -25 83 -55.5t66 -68t44 -83.5t16 -102q0 -84 -35.5 -159.5t-99 -132.5t-151 -90.5t-192.5 -33.5q-98 0 -186 30t-155 87t-106.5 138.5t-39.5 183.5zM276 420q0 -73 29 -131.5t77 -99t109.5 -62t126.5 -21.5q64 0 123.5 21t106 59t74.5 90.5t28 116.5 q0 47 -20 84t-54 67.5t-79.5 56t-97.5 49t-107.5 46.5t-108.5 49q-17 -10 -51.5 -36t-69 -67.5t-60.5 -97t-26 -124.5zM332 1098q0 -70 39.5 -119.5t102 -87t140.5 -68.5t156 -65q10 9 35 36.5t50.5 70.5t45 98t19.5 120q0 58 -22 104t-61.5 78.5t-94 50t-119.5 17.5 q-69 0 -123.5 -18.5t-91.5 -50.5t-56.5 -75t-19.5 -91z" />
<glyph unicode="9" horiz-adv-x="1217" d="M113 983q0 112 35 201t95.5 151.5t142.5 95.5t177 33q118 0 214 -51t164 -141t105 -214t37 -270q0 -90 -16 -185t-49 -185.5t-84 -171t-121 -141t-160.5 -95.5t-201.5 -35q-60 0 -108.5 9.5t-83.5 20.5q-41 13 -73 30l54 125q27 -15 60 -26q28 -10 66 -17.5t83 -7.5 q76 0 139 23.5t114.5 64t90.5 96t67.5 119.5t45.5 134t24 140h-4q-27 -38 -66.5 -69t-87.5 -53t-102.5 -34t-110.5 -12q-98 0 -180 34.5t-141 96t-92 147t-33 187.5zM256 985q0 -77 23 -139.5t66 -107t103 -69t134 -24.5q73 0 136.5 22t110.5 57t74 79t27 88q0 48 -12 99.5 t-34.5 100t-55 92.5t-73 76.5t-88.5 52t-102 19.5q-73 0 -130.5 -26t-97 -72.5t-60.5 -109.5t-21 -138z" />
<glyph unicode=":" horiz-adv-x="600" d="M219 0v164h162v-164h-162zM219 866v164h162v-164h-162z" />
<glyph unicode=";" horiz-adv-x="600" d="M127 -199l100 367h154l-135 -367h-119zM227 866v164h162v-164h-162z" />
<glyph unicode="&#x3c;" horiz-adv-x="1161" d="M102 530v103l926 414v-138l-752 -325v-4l752 -326v-137z" />
<glyph unicode="=" horiz-adv-x="1401" d="M223 344v119h955v-119h-955zM223 700v119h955v-119h-955z" />
<glyph unicode="&#x3e;" horiz-adv-x="1161" d="M133 117v137l752 326v4l-752 325v138l926 -414v-103z" />
<glyph unicode="?" horiz-adv-x="985" d="M82 1350q39 32 89 58q43 22 103.5 40t137.5 18q87 0 162 -26.5t130 -74.5t86 -114.5t31 -146.5q0 -85 -27 -146.5t-68 -110t-88 -89t-88 -83.5t-68 -92.5t-27 -117.5v-88h-140v92q0 81 26.5 141t66.5 108t86.5 88.5t86.5 83.5t66.5 92.5t26.5 115.5q0 49 -20 92 t-55.5 74.5t-84.5 50t-108 18.5q-53 0 -98.5 -13.5t-78.5 -30.5q-40 -19 -71 -44zM307 0v158h158v-158h-158z" />
<glyph unicode="@" horiz-adv-x="1649" d="M133 496q0 104 26 200.5t73.5 179.5t114.5 151.5t148 117.5t174 75.5t193 26.5q139 0 235 -32.5t155 -86.5t85.5 -123.5t26.5 -144.5v-645h145v-115h-551q-88 0 -163 31.5t-129.5 85.5t-85.5 125.5t-31 151.5q0 79 30.5 150.5t85 125.5t129.5 85.5t164 31.5h267 q-2 48 -23 91t-64 76t-109 52.5t-157 19.5q-126 0 -234.5 -50t-189 -136t-126.5 -200.5t-46 -243.5q0 -131 45.5 -245.5t126.5 -199t192 -133.5t243 -49v-123q-160 0 -297 58.5t-237.5 160.5t-158 238.5t-57.5 292.5zM692 496q0 -59 21.5 -110t59 -89t88.5 -60t110 -22h254 v563h-250q-61 0 -112.5 -22.5t-89.5 -61t-59.5 -90t-21.5 -108.5z" />
<glyph unicode="A" horiz-adv-x="1262" d="M27 0l528 1440h152l528 -1440h-150l-165 459h-580l-164 -459h-149zM381 582h496l-189 522q-9 25 -19 57t-18 61q-10 33 -18 68h-4q-9 -35 -19 -68q-8 -29 -18 -61t-19 -57z" />
<glyph unicode="B" horiz-adv-x="1282" d="M209 0v1440h491q85 0 157 -25t123.5 -72t80.5 -114t29 -152q0 -112 -49.5 -191.5t-133.5 -121.5v-4q55 -15 100 -48.5t76.5 -80t48.5 -104.5t17 -124q0 -96 -33.5 -171t-92 -126.5t-137.5 -78.5t-169 -27h-508zM350 127h369q65 0 117.5 19.5t89 56.5t56 88.5t19.5 116.5 q0 64 -21 116.5t-58.5 90t-89.5 57.5t-115 20h-367v-565zM350 815h350q55 0 100 18.5t77 51.5t49.5 79.5t17.5 102.5q0 55 -17 100.5t-48.5 77.5t-77 50t-103.5 18h-348v-498z" />
<glyph unicode="C" horiz-adv-x="1491" d="M113 729q0 104 25 199.5t71 177t111 147.5t145.5 113t174 72.5t196.5 25.5q64 0 120.5 -8t105 -21t89 -30t73.5 -34q76 -41 130 -93l-76 -104q-51 44 -118 79q-57 30 -137.5 55t-182.5 25q-127 0 -233.5 -46.5t-183.5 -127.5t-120 -191t-43 -237q0 -129 43 -243 t120.5 -198.5t185 -134t235.5 -49.5q54 0 103.5 8t92.5 21.5t80 31t67 35.5q70 42 124 97l82 -100q-61 -63 -143 -112q-35 -21 -78.5 -41t-94.5 -36t-110 -25.5t-125 -9.5q-107 0 -202 26.5t-176 75.5t-146 117.5t-110.5 152.5t-70 180.5t-24.5 201.5z" />
<glyph unicode="D" horiz-adv-x="1516" d="M209 0v1440h465q162 0 295 -48.5t228.5 -140.5t147.5 -225.5t52 -304.5q0 -172 -52 -306t-147.5 -226.5t-228.5 -140.5t-295 -48h-465zM350 127h309q133 0 242 38.5t186 114t119.5 186.5t42.5 255t-42.5 254.5t-120 185.5t-186.5 113.5t-241 38.5h-309v-1186z" />
<glyph unicode="E" horiz-adv-x="1169" d="M209 0v1440h811v-127h-670v-525h547v-126h-547v-535h707v-127h-848z" />
<glyph unicode="F" horiz-adv-x="1053" d="M209 0v1440h758v-127h-617v-541h529v-127h-529v-645h-141z" />
<glyph unicode="G" horiz-adv-x="1552" d="M113 721q0 156 55 291.5t152 236t230 158t288 57.5q62 0 117.5 -7t103 -19t88 -27t72.5 -31q76 -37 131 -84l-76 -106q-51 39 -117 71q-57 27 -135.5 49.5t-177.5 22.5q-131 0 -238.5 -47t-184 -129.5t-119 -194t-42.5 -239.5q0 -133 43 -246t119.5 -195.5t181 -129 t227.5 -46.5q52 0 99.5 9t89.5 23.5t78 33.5t65 39q69 47 121 106v244h-246v127h381v-688h-131v109v22t1 20q0 10 1 19h-4q-51 -55 -121 -98q-30 -18 -66.5 -35.5t-80.5 -31t-94 -22t-107 -8.5q-98 0 -188.5 25.5t-168.5 73t-142 114t-109.5 149.5t-70.5 180t-25 204z" />
<glyph unicode="H" horiz-adv-x="1536" d="M209 0v1440h141v-656h836v656h141v-1440h-141v657h-836v-657h-141z" />
<glyph unicode="I" horiz-adv-x="559" d="M209 0v1440h141v-1440h-141z" />
<glyph unicode="J" horiz-adv-x="1073" d="M72 403v58h141v-53q0 -83 23 -140.5t60 -93.5t84.5 -52t96.5 -16q48 0 94.5 15t84 50t60.5 91.5t23 140.5v910h-352v127h494v-1037q0 -117 -35.5 -198.5t-93 -132.5t-130 -74t-147.5 -23q-74 0 -146 23.5t-129 74.5t-92.5 132.5t-35.5 197.5z" />
<glyph unicode="K" horiz-adv-x="1231" d="M209 0v1440h141v-625h244l387 625h162l-430 -680v-4l458 -756h-165l-412 688h-244v-688h-141z" />
<glyph unicode="L" horiz-adv-x="1061" d="M209 0v1440h141v-1313h668v-127h-809z" />
<glyph unicode="M" horiz-adv-x="1749" d="M164 0l115 1440h147l377 -846q12 -28 24.5 -59t22.5 -57q11 -31 22 -60h5q11 29 23 60q11 26 23 57t25 59l377 846h145l115 -1440h-141l-80 1008q-2 29 -3 64t-1 65v71h-4q-13 -37 -26 -73q-11 -31 -24.5 -65.5t-25.5 -61.5l-338 -740h-133l-338 740q-13 26 -26.5 61.5 t-24.5 67.5q-13 37 -27 75h-4v-73q0 -31 -1 -66.5t-3 -64.5l-80 -1008h-141z" />
<glyph unicode="N" horiz-adv-x="1542" d="M209 0v1440h137l735 -1037q18 -27 39 -60.5t39 -63.5q21 -35 41 -70h4q-3 35 -6 69q-2 29 -4 62.5t-2 62.5v1037h141v-1440h-137l-735 1036q-19 27 -39.5 60.5t-38.5 63.5q-21 35 -41 71h-4q3 -35 6 -69q2 -29 4 -63t2 -63v-1036h-141z" />
<glyph unicode="O" horiz-adv-x="1688" d="M111 729q0 103 26 198t73.5 176.5t114 148t148 114t175.5 73t196 25.5t195.5 -25.5t175 -73t148.5 -114t114.5 -148t73.5 -176.5t26 -198q0 -106 -26 -202.5t-73.5 -180.5t-114.5 -152.5t-148.5 -117t-175 -75t-195.5 -26.5t-196 26.5t-175.5 75t-148 117t-114 152.5 t-73.5 181t-26 202zM258 729q0 -132 45.5 -246t125 -197.5t186.5 -131.5t229 -48q81 0 155.5 21.5t140 61.5t119 96.5t91.5 125.5t59 149.5t21 168.5q0 129 -46 239.5t-125.5 191.5t-186.5 127t-228 46q-122 0 -229 -46t-186.5 -127t-125 -191.5t-45.5 -239.5z" />
<glyph unicode="P" horiz-adv-x="1225" d="M209 0v1440h498q97 0 178.5 -30.5t140.5 -87t92 -136.5t33 -180q0 -101 -33 -182.5t-92 -139t-140.5 -88.5t-178.5 -31h-357v-565h-141zM350 692h338q72 0 131 21.5t100.5 62t64 98.5t22.5 132q0 73 -22.5 130t-64 96.5t-99.5 60t-130 20.5h-340v-621z" />
<glyph unicode="Q" horiz-adv-x="1710" d="M111 729q0 155 56.5 289.5t155 233.5t231.5 155.5t286 56.5q155 0 289.5 -56.5t234 -155.5t156.5 -233.5t57 -289.5q0 -143 -48.5 -271t-131.5 -225l178 -178l-86 -88l-176 178q-96 -81 -216 -125.5t-257 -44.5q-102 0 -195.5 26.5t-174.5 75.5t-147.5 117.5 t-113.5 152.5t-72.5 180.5t-25.5 201.5zM258 729q0 -131 45 -245t123 -198t184.5 -132t229.5 -48q49 0 99.5 9.5t99 27t92.5 42.5t81 57l-176 180l86 88l174 -178q62 78 98 181.5t36 215.5q0 129 -45.5 239.5t-125 191.5t-187.5 127t-232 46q-123 0 -229.5 -46t-184.5 -127 t-123 -191.5t-45 -239.5z" />
<glyph unicode="R" horiz-adv-x="1286" d="M209 0v1440h426q55 0 96 -2.5t72.5 -8t56 -12.5t45.5 -16q51 -23 91 -59t68 -83.5t43 -105.5t15 -123q0 -73 -19.5 -136.5t-55.5 -114t-86 -86t-111 -52.5v-4q5 -6 10 -14t11.5 -18.5t15.5 -24.5l313 -580h-162l-325 606h-363v-606h-141zM350 733h342q65 0 118 20.5 t90 58.5t57 92t20 122q0 90 -34 154t-97 98q-16 8 -34.5 14.5t-42.5 11t-55 7t-73 2.5h-291v-580z" />
<glyph unicode="S" horiz-adv-x="1102" d="M102 160l84 108q45 -45 103 -79q50 -29 119 -53.5t155 -24.5q59 0 111.5 17t91.5 49.5t61.5 78.5t22.5 104q0 68 -31 116.5t-81.5 85.5t-115 66.5t-132 59t-132 62.5t-115 78t-81.5 105t-31 144q0 78 32.5 148t92 123t142 84.5t182.5 31.5q94 0 165.5 -22t120.5 -48 q57 -31 99 -69l-70 -119q-39 34 -87 61q-42 23 -99.5 42.5t-128.5 19.5q-69 0 -125.5 -21t-96 -55.5t-61 -79t-21.5 -92.5q0 -64 31 -109.5t81.5 -80t115 -62.5t132 -57t132 -63t115 -81t81.5 -110.5t31 -152.5q0 -81 -30 -152t-86.5 -124t-137.5 -83.5t-182 -30.5 q-56 0 -105 8t-91.5 21t-78 29.5t-64.5 33.5q-68 40 -118 93z" />
<glyph unicode="T" horiz-adv-x="1204" d="M14 1313v127h1176v-127h-516v-1313h-142v1313h-518z" />
<glyph unicode="U" horiz-adv-x="1483" d="M190 502v938h144v-936q0 -93 29 -167t82 -125t128 -78.5t168 -27.5t168.5 27.5t129.5 79t83 126t29 169.5v932h141v-938q0 -120 -40 -217.5t-112.5 -166t-173.5 -106t-223 -37.5q-123 0 -224.5 37.5t-174.5 106t-113.5 166t-40.5 217.5z" />
<glyph unicode="V" horiz-adv-x="1266" d="M25 1440h151l399 -1094q10 -28 20 -60.5t18 -60.5q10 -33 18 -65h4q8 32 18 65q8 28 17.5 60.5t19.5 60.5l400 1094h151l-534 -1440h-148z" />
<glyph unicode="W" horiz-adv-x="1898" d="M80 1440h147l279 -1118q7 -28 12.5 -55.5t10.5 -49.5q5 -26 10 -49h4q1 0 3 13.5t6 35.5t9.5 49.5t13.5 55.5l304 1118h135l303 -1118q7 -28 13 -55.5t10 -49.5t6.5 -35.5t3.5 -13.5h4q4 23 9 49q5 22 10.5 49.5t12.5 55.5l289 1118h148l-383 -1440h-170l-275 1014 q-9 35 -17.5 72.5t-15.5 69.5q-8 37 -14 73h-4q-6 -36 -14 -73q-7 -32 -15.5 -69.5t-17.5 -72.5l-274 -1014h-170z" />
<glyph unicode="X" horiz-adv-x="1212" d="M53 0l459 752l-418 688h166l252 -426q16 -28 32.5 -57.5t30.5 -53.5q16 -28 31 -55h4q12 27 26 55q12 24 27.5 53.5t32.5 57.5l254 426h168l-422 -688l461 -752h-164l-299 498q-17 27 -33 55.5t-29 51.5q-15 27 -28 52h-4q-13 -25 -27 -52q-12 -23 -28 -52t-33 -57 l-295 -496h-164z" />
<glyph unicode="Y" horiz-adv-x="1176" d="M31 1440h162l305 -522q16 -28 31.5 -58t28.5 -56q15 -30 28 -59h4q13 28 27 58q12 26 28 56t33 59l305 522h160l-484 -822v-618h-143v618z" />
<glyph unicode="Z" horiz-adv-x="1219" d="M88 0v100l743 1082q20 28 38.5 52.5t32.5 41.5q16 20 30 37v4q-11 -1 -26 -2q-14 -1 -33.5 -1.5t-45.5 -0.5h-700v127h981v-101l-743 -1081q-20 -29 -39 -53.5t-33 -41.5q-17 -20 -31 -36v-4q11 1 27 2q14 1 34 1.5t46 0.5h745v-127h-1026z" />
<glyph unicode="[" horiz-adv-x="578" d="M219 -195v1690h277v-115h-148v-1460h148v-115h-277z" />
<glyph unicode="\" horiz-adv-x="805" d="M70 1520h131l518 -1606h-129z" />
<glyph unicode="]" horiz-adv-x="578" d="M82 -80h147v1460h-147v115h276v-1690h-276v115z" />
<glyph unicode="^" horiz-adv-x="1241" d="M150 512l405 928h96l406 -928h-133l-320 758l-319 -758h-135z" />
<glyph unicode="_" horiz-adv-x="1196" d="M70 0h1056v-119h-1056v119z" />
<glyph unicode="`" horiz-adv-x="1032" d="M365 1784h161l142 -244h-127z" />
<glyph unicode="a" d="M84 281q0 87 34.5 147t89.5 100t124.5 61.5t139.5 32.5t134.5 13t108.5 2h57v27q0 74 -19 125t-53.5 82.5t-81.5 45t-102 13.5q-64 0 -117.5 -15.5t-91.5 -34.5q-46 -22 -82 -49l-65 107q41 32 96 58q48 22 115 40.5t155 18.5q187 0 286 -100.5t99 -295.5v-659h-133v113 q0 19 0.5 35t1.5 27q1 13 2 24h-4q-27 -63 -75 -112q-20 -21 -46.5 -41t-60 -36t-74 -25.5t-88.5 -9.5q-65 0 -127.5 19t-112 57t-80 95.5t-30.5 134.5zM227 289q0 -36 14.5 -71t43 -62.5t71.5 -44.5t101 -17q73 0 131.5 35t99.5 90t62.5 123t21.5 135v45h-59 q-41 0 -92.5 -1.5t-105.5 -8.5t-106 -21.5t-92.5 -40.5t-65 -65t-24.5 -96z" />
<glyph unicode="b" horiz-adv-x="1206" d="M168 0v1440h139v-500q0 -18 -0.5 -33.5t-1.5 -26.5q-1 -13 -2 -24h4q28 55 76 99q20 19 47 37t61 32t75 22.5t91 8.5q104 0 187 -39.5t141.5 -111t89.5 -171t31 -219.5q0 -122 -34.5 -221.5t-96.5 -170t-147.5 -109t-186.5 -38.5q-46 0 -85 8.5t-71.5 22.5t-58.5 32 t-46 37q-48 44 -77 101h-4q1 -11 2 -24q1 -11 1.5 -26.5t0.5 -33.5v-92h-135zM303 512q0 -78 20 -152t61 -132.5t102.5 -94t144.5 -35.5q68 0 128.5 28t105.5 81.5t71.5 131t26.5 175.5q0 94 -24 170.5t-67 130.5t-103 83.5t-132 29.5q-65 0 -125 -24t-106.5 -74.5 t-74.5 -129t-28 -188.5z" />
<glyph unicode="c" horiz-adv-x="1124" d="M96 514q0 119 42 218.5t115 171t171.5 111.5t212.5 40q95 0 165 -23t118 -51q55 -33 94 -74l-72 -104q-35 35 -81 62q-39 23 -94.5 43t-125.5 20q-84 0 -157.5 -30t-127.5 -84.5t-85 -131t-31 -168.5q0 -91 31.5 -167t86 -131t128.5 -85.5t159 -30.5q78 0 139.5 22.5 t103.5 50.5q49 32 87 73l63 -109q-43 -46 -102 -81q-51 -31 -125.5 -56t-173.5 -25q-114 0 -213 39.5t-172 110.5t-114.5 170t-41.5 219z" />
<glyph unicode="d" horiz-adv-x="1206" d="M100 516q0 122 34.5 221.5t96 170t146.5 109t186 38.5q47 0 86.5 -8.5t71.5 -22t58 -31.5t46 -36q47 -43 74 -97h4q-1 11 -2 23q-1 11 -1.5 24.5t-0.5 30.5v502h139v-1440h-135v109q0 17 0.5 30t1.5 23q1 11 2 20h-4q-28 -58 -76 -104q-21 -20 -48 -38.5t-61 -32.5 t-76 -23t-93 -9q-104 0 -187 39.5t-141.5 111t-89.5 171t-31 219.5zM244 516q0 -95 24 -172t66.5 -131t102.5 -83.5t132 -29.5q64 0 124.5 24t107 74.5t74.5 129t28 188.5q0 78 -20 152.5t-60.5 132.5t-102.5 93.5t-145 35.5q-68 0 -128.5 -28t-105.5 -81.5t-71 -130.5 t-26 -174z" />
<glyph unicode="e" horiz-adv-x="1133" d="M96 514q0 127 40.5 227t109.5 170t161.5 107t196.5 37q107 0 187.5 -38t134.5 -103.5t81 -151.5t27 -182q0 -10 -0.5 -22t-1.5 -23q-1 -13 -2 -27h-790q2 -99 35 -175t87 -128t125.5 -78.5t151.5 -26.5q71 0 128 19.5t99 42.5q48 27 86 63l64 -106q-46 -40 -104 -72 q-50 -27 -120 -49.5t-157 -22.5q-115 0 -213.5 39.5t-171 111t-113.5 170.5t-41 218zM246 623h647q-3 81 -27.5 140t-64.5 98t-91.5 58t-109.5 19q-65 0 -123.5 -20.5t-105.5 -60t-80 -98.5t-45 -136z" />
<glyph unicode="f" horiz-adv-x="655" d="M86 901v117h129v49q0 85 18.5 146.5t48 104t68 68.5t78 40t77 19t66.5 5q14 0 26.5 -0.5t20.5 -1.5q10 -1 17 -2v-125q-6 1 -14 2q-7 1 -15.5 1.5t-19.5 0.5q-30 0 -70 -8t-76 -35t-61 -78t-25 -137v-49h264v-117h-264v-901h-139v901h-129z" />
<glyph unicode="g" horiz-adv-x="1192" d="M100 535q0 116 31 211.5t88.5 164t140.5 106.5t187 38q51 0 92.5 -7.5t75 -19.5t59.5 -27.5t45 -31.5q45 -38 68 -86h4q-1 4 -1 9q-1 5 -1 11v15v112h135v-1005q0 -82 -19 -147.5t-53 -116t-80.5 -87t-101.5 -59.5t-116 -34t-124 -11q-89 0 -175.5 22t-161.5 60l53 115 q37 -20 82 -36q38 -14 88.5 -25t107.5 -11q75 0 141 18.5t115 57.5t77 100t28 147v95q0 14 0.5 27.5t1.5 23.5l2 22h-4q-47 -86 -126 -133t-200 -47q-104 0 -188.5 39t-144.5 109t-93 167.5t-33 213.5zM244 537q0 -92 24 -167t68 -128t106.5 -82t139.5 -29q60 0 115.5 20.5 t97.5 67.5t67 124.5t25 191.5q0 113 -25.5 188.5t-69.5 121t-103.5 64.5t-127.5 19q-75 0 -134 -26.5t-99.5 -77t-62 -123t-21.5 -164.5z" />
<glyph unicode="h" horiz-adv-x="1214" d="M168 0v1440h139v-557q0 -18 -0.5 -33.5t-1.5 -26.5q-1 -13 -2 -24h4q15 37 48 81.5t84 83.5t120.5 65t157.5 26q95 0 161 -27t106.5 -78t58.5 -125.5t18 -169.5v-655h-139v618q0 61 -7 116.5t-30.5 97.5t-67.5 67t-119 25q-66 0 -126 -21.5t-109.5 -60.5t-85 -93 t-53.5 -118q-10 -31 -13.5 -65.5t-3.5 -71.5v-494h-139z" />
<glyph unicode="i" horiz-adv-x="475" d="M164 1266v174h145v-174h-145zM168 0v1030h139v-1030h-139z" />
<glyph unicode="j" horiz-adv-x="475" d="M-113 -295q6 -1 13 -1q6 -1 14 -1h18q30 0 70.5 8t77.5 35.5t62.5 80t25.5 140.5v1063h139v-1069q0 -86 -18.5 -147.5t-49 -104t-69 -68.5t-78 -40t-77.5 -18.5t-66 -4.5q-29 0 -45 3q-10 1 -17 3v121zM166 1266v174h143v-174h-143z" />
<glyph unicode="k" horiz-adv-x="1028" d="M168 0v1440h139v-803h164l309 393h168l-358 -448v-4l393 -578h-166l-344 516h-166v-516h-139z" />
<glyph unicode="l" horiz-adv-x="506" d="M158 244v1196h139v-1166q0 -51 10.5 -81.5t27 -47t37 -21.5t40.5 -5h13t11 1q5 0 10 1v-125q-7 -1 -15 -2q-7 -1 -16.5 -1.5t-19.5 -0.5q-32 0 -73 7.5t-77.5 33.5t-61.5 76t-25 135z" />
<glyph unicode="m" horiz-adv-x="1876" d="M168 0v1030h137v-153q0 -17 -0.5 -32t-1.5 -26q-1 -13 -2 -24h4q18 52 56.5 99t88.5 83t109 57t119 21q143 0 219.5 -65t99.5 -193h4q21 52 58.5 99t87 82t109 56t124.5 21q94 0 159 -27t105.5 -78t59 -125.5t18.5 -169.5v-655h-139v621q0 63 -8.5 118.5t-32.5 97.5 t-68 66.5t-114 24.5q-59 0 -112 -24t-95.5 -64.5t-73 -93t-45.5 -109.5q-11 -34 -14.5 -71t-3.5 -79v-487h-139v621q0 58 -6.5 113.5t-29 98.5t-66 69t-116.5 26q-63 0 -117.5 -25.5t-98 -67.5t-74.5 -96.5t-47 -113.5q-8 -32 -11.5 -67t-3.5 -71v-487h-139z" />
<glyph unicode="n" horiz-adv-x="1214" d="M168 0v1030h137v-153q0 -17 -0.5 -32t-1.5 -26q-1 -13 -2 -24h4q14 35 45.5 80t82.5 85t121.5 67.5t162.5 27.5q95 0 161 -27t106.5 -78t58.5 -125.5t18 -169.5v-655h-139v618q0 61 -7 116.5t-30.5 97.5t-67.5 67t-119 25q-66 0 -126 -21.5t-109.5 -60t-85 -92 t-53.5 -117.5q-10 -32 -13.5 -67t-3.5 -72v-494h-139z" />
<glyph unicode="o" horiz-adv-x="1274" d="M92 520q0 114 43 212t117 170t173 112.5t212 40.5t212 -40.5t173 -112.5t117 -170t43 -212q0 -117 -43 -216.5t-117 -172.5t-173 -114.5t-212 -41.5t-212 41.5t-173 114.5t-117 172.5t-43 216.5zM236 520q0 -90 31.5 -166.5t86 -133t127.5 -88.5t156 -32t156 32 t127.5 88.5t86 133t31.5 166.5q0 88 -31.5 162.5t-86 129t-127.5 85.5t-156 31t-156 -31t-127.5 -85.5t-86 -129t-31.5 -162.5z" />
<glyph unicode="p" horiz-adv-x="1206" d="M168 -410v1440h133v-100q0 -17 -0.5 -31.5t-1.5 -25.5q-1 -12 -2 -23h4q28 57 76 102q21 19 48 37.5t61.5 33t77 23.5t93.5 9q104 0 187 -39.5t141.5 -111t89.5 -171t31 -219.5q0 -122 -34.5 -221.5t-96 -170t-146 -109t-184.5 -38.5q-47 0 -86 8.5t-71.5 22t-58.5 31.5 t-46 36q-48 43 -76 99h-4q1 -11 2 -25q1 -12 1.5 -28.5t0.5 -36.5v-492h-139zM303 512q0 -78 21.5 -152t63 -132.5t102.5 -94t141 -35.5q68 0 128.5 28t105.5 81.5t71.5 131t26.5 175.5q0 94 -24 170.5t-67 130.5t-103 83.5t-132 29.5q-65 0 -125 -24t-106.5 -74.5 t-74.5 -129t-28 -188.5z" />
<glyph unicode="q" horiz-adv-x="1206" d="M100 516q0 122 34.5 221.5t96 170t146.5 109t186 38.5q47 0 86.5 -8.5t72 -22.5t58.5 -32t46 -37q47 -44 75 -99h4q-1 10 -1 22q-1 11 -1 25v31v96h135v-1440h-139v496q0 20 0.5 36.5t1.5 28.5q1 14 2 25h-4q-28 -57 -76 -101q-21 -19 -47.5 -37t-60.5 -32t-75.5 -22.5 t-90.5 -8.5q-104 0 -187 39.5t-141.5 111t-89.5 171t-31 219.5zM244 516q0 -95 24 -172t66.5 -131t102.5 -83.5t132 -29.5q64 0 124.5 24t107 74.5t74.5 129t28 188.5q0 78 -20 152.5t-60.5 132.5t-102.5 93.5t-145 35.5q-68 0 -128.5 -28t-105.5 -81.5t-71 -130.5t-26 -174 z" />
<glyph unicode="r" horiz-adv-x="729" d="M168 0v1030h137v-182q0 -17 -0.5 -32t-1.5 -26q-1 -13 -2 -24h4q18 58 48.5 108.5t72 87t93 57.5t112.5 21q11 0 20.5 -1t17.5 -2q9 -2 17 -3v-137q-7 1 -15 2q-7 1 -16.5 1.5t-19.5 0.5q-55 0 -102 -20.5t-85.5 -56t-66.5 -84t-45 -105.5q-16 -50 -22.5 -100.5 t-6.5 -100.5v-434h-139z" />
<glyph unicode="s" horiz-adv-x="907" d="M84 125l76 100q34 -36 81 -63q40 -23 96.5 -42.5t129.5 -19.5q42 0 79.5 10.5t66 31t45 51t16.5 71.5q0 42 -24 72.5t-63 54.5t-88.5 43.5t-102 41t-102 46.5t-88.5 59t-63 80t-24 109q0 69 29 122t77.5 89.5t112 55t133.5 18.5q81 0 141 -18t99 -39q46 -25 77 -56 l-63 -106q-27 26 -65 47q-32 17 -80.5 32t-112.5 15q-39 0 -76 -9t-65.5 -28t-46 -49.5t-17.5 -73.5t24 -73t63 -54t88.5 -43.5t102 -40t102 -45.5t88.5 -59.5t63 -80.5t24 -110q0 -63 -26 -116t-72.5 -91.5t-111 -60t-142.5 -21.5q-94 0 -165 23t-119 52q-56 33 -97 75z " />
<glyph unicode="t" horiz-adv-x="686" d="M72 901v117h137v297h137v-297h258v-117h-258v-512q0 -61 12 -104.5t31 -73.5t43.5 -48.5t50.5 -28.5t50.5 -13.5t44.5 -3.5q11 0 19.5 0.5t14.5 1.5q7 1 13 2v-125q-7 -1 -16 -2q-8 -1 -19 -1.5t-25 -0.5q-30 0 -68 4.5t-77.5 18.5t-78 39.5t-68 68t-48 104.5t-18.5 148 v526h-135z" />
<glyph unicode="u" horiz-adv-x="1204" d="M154 375v655h139v-618q0 -61 7 -116.5t30 -97.5t67 -67t119 -25q88 0 159 36t120 95.5t75.5 137.5t26.5 162v493h139v-1030h-135v154q0 17 0.5 32t1.5 26q1 13 2 24h-4q-15 -38 -48 -83.5t-83.5 -85t-118.5 -66t-153 -26.5q-91 0 -156 24.5t-107 74.5t-61.5 125 t-19.5 176z" />
<glyph unicode="v" horiz-adv-x="993" d="M27 1030h147l287 -756q7 -20 13 -41t11 -39q5 -21 11 -42h4q5 20 11 41q5 18 11.5 39.5t14.5 41.5l284 756h146l-394 -1030h-151z" />
<glyph unicode="w" horiz-adv-x="1640" d="M35 1030h147l250 -768q6 -19 11.5 -38t10.5 -35q5 -18 9 -37h4q4 19 9 37q5 16 10 35t12 38l254 764h137l254 -764q6 -19 11 -38t10 -35q5 -18 10 -37h4q4 18 9 36q4 16 9.5 35t11.5 39l250 768h148l-349 -1030h-151l-252 733q-7 19 -12.5 39t-10.5 36l-10 36h-4 q-4 -18 -9 -36q-5 -16 -10.5 -36t-11.5 -39l-251 -733h-152z" />
<glyph unicode="x" horiz-adv-x="1006" d="M51 0l363 537l-332 493h164l221 -346q6 -11 12 -21.5t11 -18.5q6 -10 12 -19h2q5 9 11 19q5 8 11 18.5t13 21.5l221 346h164l-332 -493l362 -537h-163l-250 387q-8 10 -14 20.5t-11 18.5q-5 10 -10 18h-4h-2q-6 -8 -11 -18q-5 -8 -11 -18.5t-13 -20.5l-250 -387h-164z " />
<glyph unicode="y" horiz-adv-x="1022" d="M14 -369l54 111q18 -13 37 -24q17 -9 38.5 -16t46.5 -7q34 0 63 13t53 35.5t44 53.5t35 66l64 145l-431 1022h154l303 -751q8 -20 14.5 -39t11.5 -35q6 -18 11 -35h4l10 35q5 16 11 35t14 39l297 751h151l-507 -1245q-41 -98 -117.5 -156.5t-179.5 -58.5q-41 0 -74 9.5 t-57 20.5q-28 13 -50 31z" />
<glyph unicode="z" horiz-adv-x="1042" d="M86 0v90l576 723q14 18 28.5 35t26.5 30q13 15 26 29v4q-11 -1 -26 -2q-13 -1 -31.5 -1.5t-44.5 -0.5h-530v123h821v-92l-576 -721q-15 -19 -30 -35.5t-27 -29.5q-14 -15 -27 -29v-4q11 1 27 2q14 1 33 1.5t45 0.5h575v-123h-866z" />
<glyph unicode="{" horiz-adv-x="688" d="M109 598v127q48 9 87 37q16 12 31.5 29.5t28 41.5t20 55.5t7.5 72.5v167q0 84 17 144.5t44 101t61 64.5t67.5 37t64 16.5t51.5 3.5h30v-115h-18q-19 0 -51 -6.5t-62.5 -32t-52.5 -77t-22 -140.5v-200q0 -38 -7 -69t-18.5 -56.5t-26.5 -45t-30 -34.5q-36 -35 -82 -55v-5 q46 -18 82 -52q15 -15 30 -34.5t26.5 -45t18.5 -57.5t7 -71v-225q0 -88 22 -139t52.5 -77t62.5 -33t51 -7h18v-115q-4 -1 -8 -1q-4 -1 -9.5 -1h-12.5q-21 0 -51.5 3.5t-64 16.5t-67.5 37t-61 65t-44 101.5t-17 145.5v195q0 40 -7.5 71t-20 55t-28 41t-31.5 29q-39 28 -87 37 z" />
<glyph unicode="|" horiz-adv-x="563" d="M217 -322v1936h129v-1936h-129z" />
<glyph unicode="}" horiz-adv-x="688" d="M70 -82h20q12 0 30.5 2.5t39.5 11.5t41.5 26t37 45.5t27 70t10.5 100.5v225q0 39 7 71t18.5 57.5t26.5 45t30 34.5q36 34 82 52v5q-46 20 -82 55q-15 15 -30 34.5t-26.5 45t-18.5 56.5t-7 69v200q0 89 -22 140.5t-52.5 77t-62 32t-49.5 6.5h-20v115h32q20 0 50.5 -3.5 t64 -16.5t67.5 -37t61 -64.5t44 -101t17 -144.5v-167q0 -41 7.5 -72.5t19.5 -55.5t27.5 -41.5t32.5 -29.5q38 -28 87 -37v-127q-49 -9 -87 -37q-17 -12 -32.5 -29t-27.5 -41t-19.5 -55t-7.5 -71v-195q0 -85 -17 -145.5t-44 -101.5t-61 -65t-67.5 -37t-64 -16.5t-50.5 -3.5 h-14t-10 1q-5 0 -8 1v115z" />
<glyph unicode="~" horiz-adv-x="1233" d="M152 428q0 84 19 144.5t53.5 98.5t82 56t105.5 18q56 0 96 -16t71 -39.5t56 -51t51.5 -51t57.5 -39.5t75 -16q46 0 74.5 21.5t44.5 53t21.5 67t5.5 63.5h120q0 -84 -19 -144.5t-53.5 -98.5t-82 -56t-105.5 -18q-56 0 -96 16t-71 39.5t-56 51t-51.5 51t-58 39.5t-74.5 16 q-46 0 -74.5 -21.5t-44.5 -52.5t-21.5 -67t-5.5 -64h-120z" />
<glyph unicode="&#xa1;" horiz-adv-x="561" d="M201 872v158h157v-158h-157zM209 -410l6 1063h131l6 -1063h-143z" />
<glyph unicode="&#xa2;" horiz-adv-x="1171" d="M123 721q0 111 28 210t82.5 175.5t134.5 125.5t185 60v172h115v-172q67 -8 125 -32.5t106 -64t86 -92t66 -114.5l-131 -49q-23 48 -52.5 89t-67 70t-83.5 45.5t-101 16.5q-89 0 -154.5 -34t-108.5 -93.5t-64 -140t-21 -172.5q0 -94 21 -174.5t63.5 -139.5t108 -92.5 t155.5 -33.5q55 0 101 16t83.5 45.5t67 70t52.5 89.5l131 -51q-27 -59 -64.5 -111.5t-85 -93t-106 -67t-127.5 -32.5v-174h-115v174q-105 12 -185 61t-134.5 125.5t-82.5 176t-28 211.5z" />
<glyph unicode="&#xa3;" horiz-adv-x="1206" d="M121 0v127h129v541h-90v112h90v305q0 81 31.5 150t87.5 120t134 80t171 29q72 0 130.5 -18t100.5 -40q49 -26 88 -58l-86 -103q-30 24 -67 43q-32 16 -74 29.5t-92 13.5q-68 0 -120 -20.5t-88 -55t-54.5 -81t-18.5 -97.5v-297h393v-112h-393v-541h694v-127h-966z" />
<glyph unicode="&#xa5;" horiz-adv-x="1231" d="M70 1440h161l293 -510q17 -31 33.5 -63.5t28.5 -59.5q14 -32 26 -62h4q12 30 26 62q12 27 28.5 59.5t34.5 63.5l294 510h162l-360 -619h215v-104h-273l-55 -99v-79h328v-107h-328v-432h-143v432h-334v107h334v79l-58 99h-276v104h217z" />
<glyph unicode="&#xa7;" horiz-adv-x="844" d="M113 -41l71 98q22 -18 48 -31q23 -11 53.5 -20.5t66.5 -9.5q47 0 87.5 15t70.5 43.5t47.5 70t17.5 94.5q0 16 -1.5 32.5t-6.5 33.5l-133 878h123l139 -889q3 -20 6 -37t3 -34q0 -72 -25.5 -132.5t-72 -104.5t-112 -68.5t-145.5 -24.5q-54 0 -96.5 13t-74.5 30 q-37 18 -66 43zM139 1135q0 70 25 130.5t71.5 104.5t111.5 69t145 25q53 0 96 -13.5t75 -29.5q37 -19 66 -43l-72 -96q-21 16 -47 29q-22 11 -52 20.5t-66 9.5q-47 0 -88 -14.5t-72 -42.5t-48.5 -69t-17.5 -93q0 -15 1.5 -30.5t6.5 -32.5l136 -885h-123l-140 889 q-5 18 -6.5 36.5t-1.5 35.5z" />
<glyph unicode="&#xa8;" horiz-adv-x="1032" d="M299 1608v176h125v-176h-125zM608 1608v176h127v-176h-127z" />
<glyph unicode="&#xa9;" horiz-adv-x="1702" d="M123 721q0 103 26 198.5t73 178t112.5 150t146 115.5t173 74.5t192.5 26.5q102 0 195.5 -26.5t175 -74.5t148.5 -115.5t114.5 -150t73.5 -178t26 -198.5q0 -105 -26 -200.5t-73.5 -178.5t-114.5 -150.5t-148.5 -116t-175 -74.5t-195.5 -26q-150 0 -281.5 58t-230 158.5 t-155 236.5t-56.5 293zM244 721q0 -135 46 -251t127 -201.5t191 -134t238 -48.5q130 0 242.5 48.5t195 134t129.5 201.5t47 251q0 133 -47 248.5t-129.5 201t-195 134.5t-242.5 49q-128 0 -238 -49t-191 -134.5t-127 -201t-46 -248.5zM444 717q0 81 28 157t82 135 t132.5 94.5t179.5 35.5q42 0 79 -8.5t68.5 -22t57.5 -30.5t47 -35q48 -42 82 -95l-94 -63q-26 39 -61 70q-30 26 -74 48.5t-101 22.5q-74 0 -131 -26t-95.5 -68.5t-58.5 -98t-20 -114.5t19.5 -114.5t58 -98.5t95.5 -68.5t132 -25.5q58 0 102 22t74 48q35 31 60 71l94 -64 q-35 -54 -83 -95q-21 -18 -47 -35t-57.5 -30.5t-68 -21.5t-78.5 -8q-101 0 -179.5 35t-132.5 93.5t-82 133.5t-28 156z" />
<glyph unicode="&#xaa;" horiz-adv-x="874" d="M166 541v96h541v-96h-541zM170 977q0 55 21 93t55.5 63t77 39.5t86 21.5t83.5 8.5t68 1.5h27v8q0 42 -11 71t-30.5 47t-46.5 26t-58 8q-35 0 -66.5 -9.5t-54.5 -20.5q-27 -13 -51 -29l-53 79q27 21 63 38q31 14 74.5 26t98.5 12q120 0 182.5 -64t62.5 -188v-413h-106v100 h-4q-19 -32 -47 -57q-24 -21 -60 -38.5t-86 -17.5q-41 0 -81.5 12t-72.5 36.5t-51.5 61t-19.5 85.5zM285 987q0 -43 32 -74.5t95 -31.5q40 0 72.5 19.5t55 50t34.5 69t12 76.5v18h-25q-22 0 -50.5 -1t-59 -4.5t-60.5 -11.5t-53.5 -22.5t-38 -35.5t-14.5 -52z" />
<glyph unicode="&#xab;" horiz-adv-x="1071" d="M102 578l336 421h150l-336 -421l336 -420h-150zM469 578l336 421h151l-335 -421l335 -420h-151z" />
<glyph unicode="&#xac;" horiz-adv-x="1276" d="M150 700v119h954v-495h-125v376h-829z" />
<glyph unicode="&#xad;" horiz-adv-x="885" d="M152 518v127h581v-127h-581z" />
<glyph unicode="&#xae;" horiz-adv-x="1702" d="M123 721q0 103 26 198.5t73 178t112.5 150t146 115.5t173 74.5t192.5 26.5q102 0 195.5 -26.5t175 -74.5t148.5 -115.5t114.5 -150t73.5 -178t26 -198.5q0 -105 -26 -200.5t-73.5 -178.5t-114.5 -150.5t-148.5 -116t-175 -74.5t-195.5 -26q-150 0 -281.5 58t-230 158.5 t-155 236.5t-56.5 293zM244 721q0 -135 46 -251t127 -201.5t191 -134t238 -48.5q130 0 242.5 48.5t195 134t129.5 201.5t47 251q0 133 -47 248.5t-129.5 201t-195 134.5t-242.5 49q-128 0 -238 -49t-191 -134.5t-127 -201t-46 -248.5zM604 322v798h285q53 0 97 -17t75.5 -48 t49 -74.5t17.5 -97.5q0 -45 -13 -81t-34 -62.5t-47.5 -43.5t-54.5 -24v-4q2 -4 6 -10q3 -5 8 -13.5t13 -21.5l153 -301h-127l-160 323h-153v-323h-115zM719 735h149q65 0 103.5 39.5t38.5 108.5q0 68 -38.5 104.5t-103.5 36.5h-149v-289z" />
<glyph unicode="&#xaf;" horiz-adv-x="1032" d="M264 1608v112h504v-112h-504z" />
<glyph unicode="&#xb0;" horiz-adv-x="780" d="M102 1178q0 58 22.5 109.5t61 90.5t91 61.5t112.5 22.5t112.5 -22.5t92 -61.5t62 -90.5t22.5 -109.5q0 -59 -22.5 -111t-62 -90.5t-92 -61t-112.5 -22.5t-112.5 22.5t-91 61t-61 90.5t-22.5 111zM225 1178q0 -36 12.5 -67t34.5 -54t52 -36t65 -13t66 13t53.5 36t35.5 54 t13 67q0 34 -13 65t-35.5 54.5t-53.5 37t-66 13.5t-65 -13.5t-52 -37t-34.5 -54.5t-12.5 -65z" />
<glyph unicode="&#xb1;" horiz-adv-x="1409" d="M170 522v119h473v522h125v-522h471v-119h-471v-522h-125v522h-473zM207 -213h995v-119h-995v119z" />
<glyph unicode="&#xb2;" horiz-adv-x="782" d="M102 930q0 64 19 113.5t50.5 89t71.5 71.5t81.5 60t81.5 55t71.5 56.5t50.5 63.5t19 77q0 32 -12 60.5t-34.5 50t-53.5 34t-68 12.5q-42 0 -75 -15.5t-57 -34.5q-28 -22 -50 -50l-74 72q26 37 65 66q32 25 81 46t114 21q64 0 116 -20t88 -55t55.5 -82.5t19.5 -102.5 q0 -56 -18.5 -100t-48.5 -80t-68.5 -65t-79 -55t-80 -52t-70.5 -55t-51.5 -63.5t-22.5 -78.5h455v-103h-569q-4 17 -5.5 33.5t-1.5 30.5z" />
<glyph unicode="&#xb3;" horiz-adv-x="782" d="M88 981l72 78q23 -30 56 -54q28 -20 68 -36.5t93 -16.5q35 0 69.5 13.5t61.5 38t44 58t17 73.5q0 41 -17.5 73t-46 54t-64 33.5t-72.5 11.5h-68l-29 63l203 236q8 9 16.5 17.5l16.5 16.5q9 9 18 17v4q-12 -2 -24 -3q-11 -2 -24 -2.5t-27 -0.5h-316v102h539v-74l-244 -282 q44 -6 89 -23t82 -48.5t60 -79.5t23 -115q0 -59 -23 -111.5t-64 -92t-97 -62.5t-121 -23q-75 0 -129 20.5t-90 46.5q-42 30 -72 68z" />
<glyph unicode="&#xb4;" horiz-adv-x="1032" d="M365 1540l141 244h162l-176 -244h-127z" />
<glyph unicode="&#xb5;" horiz-adv-x="1247" d="M182 -410v1440h140v-618q0 -61 7 -116.5t30.5 -97.5t68 -67t119.5 -25q87 0 157.5 36t119.5 95.5t75.5 137.5t26.5 162v493h139v-1030h-135v156q0 16 0.5 30.5t1.5 25.5q1 13 2 24h-4q-34 -74 -89 -131q-24 -24 -54.5 -47.5t-69.5 -42t-86 -29.5t-103 -11 q-65 0 -108.5 13t-69.5 30q-31 18 -49 43h-4q3 -30 7 -58q2 -24 4.5 -51t2.5 -46v-316h-129z" />
<glyph unicode="&#xb6;" horiz-adv-x="1174" d="M100 969q0 100 39 186t106 149.5t155.5 99.5t187.5 36h489v-127h-370v-1415h-117v596q-99 0 -188 36.5t-156 100.5t-106.5 151t-39.5 187zM834 -102v1292h118v-1292h-118z" />
<glyph unicode="&#xb7;" horiz-adv-x="555" d="M199 508v164h157v-164h-157z" />
<glyph unicode="&#xb8;" horiz-adv-x="1032" d="M367 -311q11 -4 25 -7q12 -2 27.5 -4t33.5 -2q20 0 38.5 3t33 11t23.5 21.5t9 34.5q0 34 -31.5 52t-85.5 18q-6 0 -11.5 -0.5t-9.5 -0.5q-5 -1 -9 -1l53 227l82 -14v-17l-23 -123q31 -5 57 -16.5t45.5 -30t30.5 -43t11 -55.5q0 -45 -16.5 -75.5t-44.5 -50t-63.5 -28 t-72.5 -8.5q-23 0 -41.5 1.5t-32.5 3.5q-16 2 -28 5v99z" />
<glyph unicode="&#xb9;" horiz-adv-x="782" d="M150 1556l202 201h107v-788h190v-103h-497v103h194v592v18.5t1 15.5q0 8 1 15h-2q-3 -6 -8 -13t-13.5 -16t-21.5 -22l-82 -78z" />
<glyph unicode="&#xba;" horiz-adv-x="971" d="M141 1126q0 72 27 133.5t73.5 106.5t108.5 70.5t133 25.5t133 -25.5t108.5 -70.5t73.5 -106.5t27 -133.5q0 -73 -27 -135.5t-73.5 -108.5t-108.5 -72t-133 -26t-133 26t-108.5 72t-73.5 108.5t-27 135.5zM176 541v96h621v-96h-621zM254 1126q0 -51 18 -94.5t49 -75 t72.5 -49.5t89.5 -18t89.5 18t73 49.5t49.5 75t18 94.5t-18 94t-49.5 74t-73 48.5t-89.5 17.5t-89.5 -17.5t-72.5 -48.5t-49 -74t-18 -94z" />
<glyph unicode="&#xbb;" horiz-adv-x="1073" d="M115 158l336 420l-336 421h151l336 -421l-336 -420h-151zM483 158l336 420l-336 421h152l336 -421l-336 -420h-152z" />
<glyph unicode="&#xbc;" horiz-adv-x="1933" d="M128 1240l202 201h107v-788h190v-103h-497v103h194v592v18.5t1 15.5q0 8 1 15h-2q-3 -6 -8 -13t-13.5 -16t-21.5 -22l-82 -78zM528 0l688 1440h119l-686 -1440h-121zM1147 235v78l434 579h113v-555h133v-102h-133v-234h-113v234h-434zM1286 337h295v279q0 20 0.5 42.5 t2.5 41.5q1 22 3 43h-4q-9 -16 -20 -34q-9 -15 -21 -32.5t-24 -34.5l-232 -301v-4z" />
<glyph unicode="&#xbd;" horiz-adv-x="1929" d="M128 1240l202 201h107v-788h190v-103h-497v103h194v592v18.5t1 15.5q0 8 1 15h-2q-3 -6 -8 -13t-13.5 -16t-21.5 -22l-82 -78zM530 0l688 1440h119l-686 -1440h-121zM1206 65q0 64 19 113.5t50.5 89t71.5 71.5t81.5 60t81.5 55t71.5 56.5t50.5 63.5t19 77q0 32 -12 60.5 t-34.5 50t-53.5 34t-68 12.5q-42 0 -75 -15.5t-57 -34.5q-28 -22 -50 -50l-74 72q26 37 65 66q32 25 81 46t114 21q64 0 116 -20t88 -55t55.5 -82.5t19.5 -102.5q0 -56 -18.5 -100t-48.5 -80t-68.5 -65t-79 -55t-80 -52t-70.5 -55t-51.5 -63.5t-22.5 -78.5h455v-103h-569 q-4 17 -5.5 33.5t-1.5 30.5z" />
<glyph unicode="&#xbe;" horiz-adv-x="1966" d="M96 665l72 78q23 -30 56 -54q28 -20 68 -36.5t93 -16.5q35 0 69.5 13.5t61.5 38t44 58t17 73.5q0 41 -17.5 73t-46 54t-64 33.5t-72.5 11.5h-68l-29 63l203 236q8 9 16.5 17.5l16.5 16.5q9 9 18 17v4q-12 -2 -24 -3q-11 -2 -24 -2.5t-27 -0.5h-316v102h539v-74l-244 -282 q44 -6 89 -23t82 -48.5t60 -79.5t23 -115q0 -59 -23 -111.5t-64 -92t-97 -62.5t-121 -23q-75 0 -129 20.5t-90 46.5q-42 30 -72 68zM561 0l688 1440h119l-686 -1440h-121zM1179 235v78l434 579h113v-555h133v-102h-133v-234h-113v234h-434zM1318 337h295v279q0 20 0.5 42.5 t2.5 41.5q1 22 3 43h-4q-9 -16 -20 -34q-9 -15 -21 -32.5t-24 -34.5l-232 -301v-4z" />
<glyph unicode="&#xbf;" horiz-adv-x="901" d="M92 -68q0 63 16 113t41.5 91t58.5 75.5t67.5 65.5t67.5 62t58.5 65.5t41.5 75t16 91.5v82h137v-88q0 -79 -26.5 -138.5t-66 -107.5t-85.5 -89t-85.5 -84.5t-66 -92.5t-26.5 -114q0 -50 19.5 -93t55 -74.5t85 -50t108.5 -18.5q52 0 97 13t79 30q40 18 72 43l75 -102 q-38 -33 -88 -59q-43 -22 -104 -40t-137 -18q-88 0 -163 26.5t-130 74.5t-86 114.5t-31 146.5zM449 872v158h157v-158h-157z" />
<glyph unicode="&#xc0;" horiz-adv-x="1262" d="M27 0l528 1440h152l528 -1440h-150l-165 459h-580l-164 -459h-149zM381 582h496l-189 522q-9 25 -19 57t-18 61q-10 33 -18 68h-4q-9 -35 -19 -68q-8 -29 -18 -61t-19 -57zM394 1784h161l142 -244h-127z" />
<glyph unicode="&#xc1;" horiz-adv-x="1262" d="M27 0l528 1440h152l528 -1440h-150l-165 459h-580l-164 -459h-149zM381 582h496l-189 522q-9 25 -19 57t-18 61q-10 33 -18 68h-4q-9 -35 -19 -68q-8 -29 -18 -61t-19 -57zM566 1540l141 244h162l-176 -244h-127z" />
<glyph unicode="&#xc2;" horiz-adv-x="1262" d="M27 0l528 1440h152l528 -1440h-150l-165 459h-580l-164 -459h-149zM381 582h496l-189 522q-9 25 -19 57t-18 61q-10 33 -18 68h-4q-9 -35 -19 -68q-8 -29 -18 -61t-19 -57zM383 1540l170 244h154l172 -244h-135l-111 166h-4l-111 -166h-135z" />
<glyph unicode="&#xc3;" horiz-adv-x="1262" d="M27 0l528 1440h152l528 -1440h-150l-165 459h-580l-164 -459h-149zM312 1546q0 119 47 179.5t141 60.5q34 0 60 -11t47 -27.5t38.5 -35.5t35 -35.5t36 -27.5t41.5 -11q25 0 41 14.5t25 36t12.5 46.5t3.5 45h111q0 -119 -47.5 -179.5t-141.5 -60.5q-34 0 -60 11t-47 27 t-38.5 35t-35 35t-36 27t-41.5 11q-25 0 -40.5 -14.5t-24.5 -35.5t-12 -45.5t-3 -44.5h-112zM381 582h496l-189 522q-9 25 -19 57t-18 61q-10 33 -18 68h-4q-9 -35 -19 -68q-8 -29 -18 -61t-19 -57z" />
<glyph unicode="&#xc4;" horiz-adv-x="1262" d="M27 0l528 1440h152l528 -1440h-150l-165 459h-580l-164 -459h-149zM381 582h496l-189 522q-9 25 -19 57t-18 61q-10 33 -18 68h-4q-9 -35 -19 -68q-8 -29 -18 -61t-19 -57zM414 1608v176h125v-176h-125zM723 1608v176h127v-176h-127z" />
<glyph unicode="&#xc5;" horiz-adv-x="1262" d="M27 0l528 1440h152l528 -1440h-150l-165 459h-580l-164 -459h-149zM381 582h496l-189 522q-9 25 -19 57t-18 61q-10 33 -18 68h-4q-9 -35 -19 -68q-8 -29 -18 -61t-19 -57zM477 1663q0 32 12 59t33 46t49 29.5t60 10.5q31 0 59.5 -10.5t50 -29.5t34 -46t12.5 -59 t-12.5 -59t-34 -46t-50 -29.5t-59.5 -10.5q-32 0 -60 10.5t-49 29.5t-33 46t-12 59zM566 1663q0 -29 18 -48.5t47 -19.5q31 0 49.5 19.5t18.5 48.5q0 31 -18.5 50.5t-49.5 19.5q-29 0 -47 -19.5t-18 -50.5z" />
<glyph unicode="&#xc6;" horiz-adv-x="1747" d="M20 0l592 1440h985v-127h-669v-525h547v-126h-547v-535h706v-127h-848v664h-348l-268 -664h-150zM489 786h297v527h-84z" />
<glyph unicode="&#xc7;" horiz-adv-x="1493" d="M115 729q0 104 25 199.5t71 177t111 147.5t145.5 113t174 72.5t196.5 25.5q64 0 120.5 -8t105 -21t89 -30t73.5 -34q76 -41 130 -93l-76 -104q-51 44 -118 79q-57 30 -137.5 55t-182.5 25q-127 0 -233.5 -46.5t-183.5 -127.5t-120 -191t-43 -237q0 -129 43 -243 t120.5 -198.5t185 -134t235.5 -49.5q54 0 103.5 8t92.5 21.5t80 31t67 35.5q70 42 124 97l82 -100q-59 -61 -138 -109q-34 -21 -75.5 -41t-91 -36t-106 -26.5t-120.5 -11.5l-16 -88q62 -9 102.5 -46t40.5 -99q0 -45 -16.5 -75.5t-44 -50t-63 -28t-72.5 -8.5q-23 0 -42 1.5 t-33 3.5q-16 2 -28 5v99q11 -4 25 -7q12 -2 27.5 -4t33.5 -2q20 0 39 3t33.5 11t23.5 21.5t9 34.5q0 34 -31.5 52t-85.5 18q-6 0 -11.5 -0.5t-10.5 -0.5q-5 -1 -9 -1l39 166q-146 12 -267 74.5t-208 163t-135.5 231.5t-48.5 280z" />
<glyph unicode="&#xc8;" horiz-adv-x="1169" d="M209 0v1440h811v-127h-670v-525h547v-126h-547v-535h707v-127h-848zM400 1784h161l142 -244h-127z" />
<glyph unicode="&#xc9;" horiz-adv-x="1169" d="M209 0v1440h811v-127h-670v-525h547v-126h-547v-535h707v-127h-848zM572 1540l141 244h162l-176 -244h-127z" />
<glyph unicode="&#xca;" horiz-adv-x="1169" d="M209 0v1440h811v-127h-670v-525h547v-126h-547v-535h707v-127h-848zM391 1540l170 244h154l172 -244h-135l-111 166h-4l-111 -166h-135z" />
<glyph unicode="&#xcb;" horiz-adv-x="1169" d="M209 0v1440h811v-127h-670v-525h547v-126h-547v-535h707v-127h-848zM422 1608v176h125v-176h-125zM731 1608v176h127v-176h-127z" />
<glyph unicode="&#xcc;" horiz-adv-x="559" d="M44 1784h161l142 -244h-127zM209 0v1440h141v-1440h-141z" />
<glyph unicode="&#xcd;" horiz-adv-x="559" d="M209 0v1440h141v-1440h-141zM214 1540l141 244h162l-176 -244h-127z" />
<glyph unicode="&#xce;" horiz-adv-x="559" d="M33 1540l170 244h154l172 -244h-135l-111 166h-4l-111 -166h-135zM209 0v1440h141v-1440h-141z" />
<glyph unicode="&#xcf;" horiz-adv-x="559" d="M64 1608v176h125v-176h-125zM209 0v1440h141v-1440h-141zM373 1608v176h127v-176h-127z" />
<glyph unicode="&#xd0;" horiz-adv-x="1544" d="M119 662v122h123v656h463q163 0 296 -48.5t227.5 -140.5t146.5 -225.5t52 -304.5q0 -172 -52 -306t-146.5 -226.5t-227.5 -140.5t-296 -48h-463v662h-123zM383 127h307q133 0 241.5 38.5t186 114t120 186.5t42.5 255t-42.5 254.5t-120 185.5t-186 113.5t-241.5 38.5h-307 v-529h342v-122h-342v-535z" />
<glyph unicode="&#xd1;" horiz-adv-x="1542" d="M209 0v1440h137l735 -1037q18 -27 39 -60.5t39 -63.5q21 -35 41 -70h4q-3 35 -6 69q-2 29 -4 62.5t-2 62.5v1037h141v-1440h-137l-735 1036q-19 27 -39.5 60.5t-38.5 63.5q-21 35 -41 71h-4q3 -35 6 -69q2 -29 4 -63t2 -63v-1036h-141zM453 1546q0 119 47 179.5t141 60.5 q34 0 60 -11t47 -27.5t38.5 -35.5t35 -35.5t36 -27.5t41.5 -11q25 0 41 14.5t25 36t12.5 46.5t3.5 45h111q0 -119 -47.5 -179.5t-141.5 -60.5q-34 0 -60 11t-47 27t-38.5 35t-35 35t-36 27t-41.5 11q-25 0 -40.5 -14.5t-24.5 -35.5t-12 -45.5t-3 -44.5h-112z" />
<glyph unicode="&#xd2;" horiz-adv-x="1688" d="M111 729q0 103 26 198t73.5 176.5t114 148t148 114t175.5 73t196 25.5t195.5 -25.5t175 -73t148.5 -114t114.5 -148t73.5 -176.5t26 -198q0 -106 -26 -202.5t-73.5 -180.5t-114.5 -152.5t-148.5 -117t-175 -75t-195.5 -26.5t-196 26.5t-175.5 75t-148 117t-114 152.5 t-73.5 181t-26 202zM258 729q0 -132 45.5 -246t125 -197.5t186.5 -131.5t229 -48q81 0 155.5 21.5t140 61.5t119 96.5t91.5 125.5t59 149.5t21 168.5q0 129 -46 239.5t-125.5 191.5t-186.5 127t-228 46q-122 0 -229 -46t-186.5 -127t-125 -191.5t-45.5 -239.5zM605 1784h161 l142 -244h-127z" />
<glyph unicode="&#xd3;" horiz-adv-x="1688" d="M111 729q0 103 26 198t73.5 176.5t114 148t148 114t175.5 73t196 25.5t195.5 -25.5t175 -73t148.5 -114t114.5 -148t73.5 -176.5t26 -198q0 -106 -26 -202.5t-73.5 -180.5t-114.5 -152.5t-148.5 -117t-175 -75t-195.5 -26.5t-196 26.5t-175.5 75t-148 117t-114 152.5 t-73.5 181t-26 202zM258 729q0 -132 45.5 -246t125 -197.5t186.5 -131.5t229 -48q81 0 155.5 21.5t140 61.5t119 96.5t91.5 125.5t59 149.5t21 168.5q0 129 -46 239.5t-125.5 191.5t-186.5 127t-228 46q-122 0 -229 -46t-186.5 -127t-125 -191.5t-45.5 -239.5zM777 1540 l141 244h162l-176 -244h-127z" />
<glyph unicode="&#xd4;" horiz-adv-x="1688" d="M111 729q0 103 26 198t73.5 176.5t114 148t148 114t175.5 73t196 25.5t195.5 -25.5t175 -73t148.5 -114t114.5 -148t73.5 -176.5t26 -198q0 -106 -26 -202.5t-73.5 -180.5t-114.5 -152.5t-148.5 -117t-175 -75t-195.5 -26.5t-196 26.5t-175.5 75t-148 117t-114 152.5 t-73.5 181t-26 202zM258 729q0 -132 45.5 -246t125 -197.5t186.5 -131.5t229 -48q81 0 155.5 21.5t140 61.5t119 96.5t91.5 125.5t59 149.5t21 168.5q0 129 -46 239.5t-125.5 191.5t-186.5 127t-228 46q-122 0 -229 -46t-186.5 -127t-125 -191.5t-45.5 -239.5zM596 1540 l170 244h154l172 -244h-135l-111 166h-4l-111 -166h-135z" />
<glyph unicode="&#xd5;" horiz-adv-x="1688" d="M111 729q0 103 26 198t73.5 176.5t114 148t148 114t175.5 73t196 25.5t195.5 -25.5t175 -73t148.5 -114t114.5 -148t73.5 -176.5t26 -198q0 -106 -26 -202.5t-73.5 -180.5t-114.5 -152.5t-148.5 -117t-175 -75t-195.5 -26.5t-196 26.5t-175.5 75t-148 117t-114 152.5 t-73.5 181t-26 202zM258 729q0 -132 45.5 -246t125 -197.5t186.5 -131.5t229 -48q81 0 155.5 21.5t140 61.5t119 96.5t91.5 125.5t59 149.5t21 168.5q0 129 -46 239.5t-125.5 191.5t-186.5 127t-228 46q-122 0 -229 -46t-186.5 -127t-125 -191.5t-45.5 -239.5zM525 1546 q0 119 47 179.5t141 60.5q34 0 60 -11t47 -27.5t38.5 -35.5t35 -35.5t36 -27.5t41.5 -11q25 0 41 14.5t25 36t12.5 46.5t3.5 45h111q0 -119 -47.5 -179.5t-141.5 -60.5q-34 0 -60 11t-47 27t-38.5 35t-35 35t-36 27t-41.5 11q-25 0 -40.5 -14.5t-24.5 -35.5t-12 -45.5 t-3 -44.5h-112z" />
<glyph unicode="&#xd6;" horiz-adv-x="1688" d="M111 729q0 103 26 198t73.5 176.5t114 148t148 114t175.5 73t196 25.5t195.5 -25.5t175 -73t148.5 -114t114.5 -148t73.5 -176.5t26 -198q0 -106 -26 -202.5t-73.5 -180.5t-114.5 -152.5t-148.5 -117t-175 -75t-195.5 -26.5t-196 26.5t-175.5 75t-148 117t-114 152.5 t-73.5 181t-26 202zM258 729q0 -132 45.5 -246t125 -197.5t186.5 -131.5t229 -48q81 0 155.5 21.5t140 61.5t119 96.5t91.5 125.5t59 149.5t21 168.5q0 129 -46 239.5t-125.5 191.5t-186.5 127t-228 46q-122 0 -229 -46t-186.5 -127t-125 -191.5t-45.5 -239.5zM627 1608v176 h125v-176h-125zM936 1608v176h127v-176h-127z" />
<glyph unicode="&#xd7;" horiz-adv-x="1341" d="M147 84l443 498l-443 497l84 84l439 -493l438 493l84 -84l-444 -497l444 -498l-84 -84l-438 494l-439 -494z" />
<glyph unicode="&#xd8;" horiz-adv-x="1694" d="M115 729q0 103 26 198t73.5 176.5t114 148t148 114t175.5 73t196 25.5q106 0 204 -28.5t183 -79.5l96 135l84 -61l-96 -136q60 -50 108.5 -112.5t82.5 -134.5t52.5 -152t18.5 -166q0 -106 -26 -202.5t-73.5 -180.5t-114.5 -152.5t-148.5 -117t-175 -75t-195.5 -26.5 q-110 0 -208.5 29.5t-184.5 85.5l-99 -139l-86 59l101 142q-59 51 -106.5 115t-80.5 137.5t-51 155.5t-18 169zM262 729q0 -140 51.5 -259t139.5 -204l702 979q-68 42 -145 65t-162 23q-122 0 -229 -46t-186.5 -127t-125 -191.5t-45.5 -239.5zM535 201q68 -45 146.5 -70 t166.5 -25q81 0 155.5 21.5t140 61.5t119 96.5t91.5 125.5t59 149.5t21 168.5q0 139 -52.5 255t-142.5 198z" />
<glyph unicode="&#xd9;" horiz-adv-x="1483" d="M190 502v938h144v-936q0 -93 29 -167t82 -125t128 -78.5t168 -27.5t168.5 27.5t129.5 79t83 126t29 169.5v932h141v-938q0 -120 -40 -217.5t-112.5 -166t-173.5 -106t-223 -37.5q-123 0 -224.5 37.5t-174.5 106t-113.5 166t-40.5 217.5zM504 1784h161l142 -244h-127z" />
<glyph unicode="&#xda;" horiz-adv-x="1483" d="M190 502v938h144v-936q0 -93 29 -167t82 -125t128 -78.5t168 -27.5t168.5 27.5t129.5 79t83 126t29 169.5v932h141v-938q0 -120 -40 -217.5t-112.5 -166t-173.5 -106t-223 -37.5q-123 0 -224.5 37.5t-174.5 106t-113.5 166t-40.5 217.5zM676 1540l141 244h162l-176 -244 h-127z" />
<glyph unicode="&#xdb;" horiz-adv-x="1483" d="M190 502v938h144v-936q0 -93 29 -167t82 -125t128 -78.5t168 -27.5t168.5 27.5t129.5 79t83 126t29 169.5v932h141v-938q0 -120 -40 -217.5t-112.5 -166t-173.5 -106t-223 -37.5q-123 0 -224.5 37.5t-174.5 106t-113.5 166t-40.5 217.5zM493 1540l170 244h154l172 -244 h-135l-111 166h-4l-111 -166h-135z" />
<glyph unicode="&#xdc;" horiz-adv-x="1483" d="M190 502v938h144v-936q0 -93 29 -167t82 -125t128 -78.5t168 -27.5t168.5 27.5t129.5 79t83 126t29 169.5v932h141v-938q0 -120 -40 -217.5t-112.5 -166t-173.5 -106t-223 -37.5q-123 0 -224.5 37.5t-174.5 106t-113.5 166t-40.5 217.5zM524 1608v176h125v-176h-125z M833 1608v176h127v-176h-127z" />
<glyph unicode="&#xdd;" horiz-adv-x="1176" d="M31 1440h162l305 -522q16 -28 31.5 -58t28.5 -56q15 -30 28 -59h4q13 28 27 58q12 26 28 56t33 59l305 522h160l-484 -822v-618h-143v618zM521 1540l141 244h162l-176 -244h-127z" />
<glyph unicode="&#xde;" horiz-adv-x="1227" d="M209 0v1440h141v-256h357q96 0 177.5 -30.5t140.5 -87t92.5 -137.5t33.5 -181t-33.5 -181t-93 -138.5t-142 -88.5t-180.5 -31h-352v-309h-141zM350 436h338q72 0 130.5 21.5t100 61.5t63.5 98t22 131t-22 130.5t-63 97.5t-99 60.5t-130 20.5h-340v-621z" />
<glyph unicode="&#xdf;" horiz-adv-x="1174" d="M168 0v1087q0 92 35.5 162.5t93.5 118t132 72t151 24.5q82 0 148.5 -25t113 -67.5t71.5 -97.5t25 -115q0 -53 -17 -94.5t-42 -75.5t-54.5 -62.5t-54.5 -55.5t-42 -55t-17 -60q0 -35 29.5 -66t74 -62t96 -65.5t96 -75.5t74 -92t29.5 -116q0 -74 -27.5 -129t-74 -91.5 t-106.5 -54.5t-124 -18q-73 0 -129.5 10t-94.5 22q-46 14 -79 33v133q37 -21 83 -37q39 -14 92.5 -25t117.5 -11q39 0 75.5 10t64 31t44.5 53.5t17 77.5q0 48 -30 86.5t-74.5 72.5t-96.5 66.5t-96.5 68.5t-74.5 78.5t-30 96.5q0 44 17 80t42 67t55 60t55 59t42 63.5t17 75.5 q0 32 -14 64.5t-41.5 58t-69.5 41.5t-97 16q-50 0 -97.5 -16.5t-85 -49.5t-60.5 -81.5t-23 -112.5v-1077h-139z" />
<glyph unicode="&#xe0;" d="M84 281q0 87 34.5 147t89.5 100t124.5 61.5t139.5 32.5t134.5 13t108.5 2h57v27q0 74 -19 125t-53.5 82.5t-81.5 45t-102 13.5q-64 0 -117.5 -15.5t-91.5 -34.5q-46 -22 -82 -49l-65 107q41 32 96 58q48 22 115 40.5t155 18.5q187 0 286 -100.5t99 -295.5v-659h-133v113 q0 19 0.5 35t1.5 27q1 13 2 24h-4q-27 -63 -75 -112q-20 -21 -46.5 -41t-60 -36t-74 -25.5t-88.5 -9.5q-65 0 -127.5 19t-112 57t-80 95.5t-30.5 134.5zM227 289q0 -36 14.5 -71t43 -62.5t71.5 -44.5t101 -17q73 0 131.5 35t99.5 90t62.5 123t21.5 135v45h-59 q-41 0 -92.5 -1.5t-105.5 -8.5t-106 -21.5t-92.5 -40.5t-65 -65t-24.5 -96zM292 1441h161l142 -244h-127z" />
<glyph unicode="&#xe1;" d="M84 281q0 87 34.5 147t89.5 100t124.5 61.5t139.5 32.5t134.5 13t108.5 2h57v27q0 74 -19 125t-53.5 82.5t-81.5 45t-102 13.5q-64 0 -117.5 -15.5t-91.5 -34.5q-46 -22 -82 -49l-65 107q41 32 96 58q48 22 115 40.5t155 18.5q187 0 286 -100.5t99 -295.5v-659h-133v113 q0 19 0.5 35t1.5 27q1 13 2 24h-4q-27 -63 -75 -112q-20 -21 -46.5 -41t-60 -36t-74 -25.5t-88.5 -9.5q-65 0 -127.5 19t-112 57t-80 95.5t-30.5 134.5zM227 289q0 -36 14.5 -71t43 -62.5t71.5 -44.5t101 -17q73 0 131.5 35t99.5 90t62.5 123t21.5 135v45h-59 q-41 0 -92.5 -1.5t-105.5 -8.5t-106 -21.5t-92.5 -40.5t-65 -65t-24.5 -96zM461 1197l141 244h162l-176 -244h-127z" />
<glyph unicode="&#xe2;" d="M84 281q0 87 34.5 147t89.5 100t124.5 61.5t139.5 32.5t134.5 13t108.5 2h57v27q0 74 -19 125t-53.5 82.5t-81.5 45t-102 13.5q-64 0 -117.5 -15.5t-91.5 -34.5q-46 -22 -82 -49l-65 107q41 32 96 58q48 22 115 40.5t155 18.5q187 0 286 -100.5t99 -295.5v-659h-133v113 q0 19 0.5 35t1.5 27q1 13 2 24h-4q-27 -63 -75 -112q-20 -21 -46.5 -41t-60 -36t-74 -25.5t-88.5 -9.5q-65 0 -127.5 19t-112 57t-80 95.5t-30.5 134.5zM227 289q0 -36 14.5 -71t43 -62.5t71.5 -44.5t101 -17q73 0 131.5 35t99.5 90t62.5 123t21.5 135v45h-59 q-41 0 -92.5 -1.5t-105.5 -8.5t-106 -21.5t-92.5 -40.5t-65 -65t-24.5 -96zM282 1197l170 244h154l172 -244h-135l-111 166h-4l-111 -166h-135z" />
<glyph unicode="&#xe3;" d="M84 281q0 87 34.5 147t89.5 100t124.5 61.5t139.5 32.5t134.5 13t108.5 2h57v27q0 74 -19 125t-53.5 82.5t-81.5 45t-102 13.5q-64 0 -117.5 -15.5t-91.5 -34.5q-46 -22 -82 -49l-65 107q41 32 96 58q48 22 115 40.5t155 18.5q187 0 286 -100.5t99 -295.5v-659h-133v113 q0 19 0.5 35t1.5 27q1 13 2 24h-4q-27 -63 -75 -112q-20 -21 -46.5 -41t-60 -36t-74 -25.5t-88.5 -9.5q-65 0 -127.5 19t-112 57t-80 95.5t-30.5 134.5zM211 1203q0 119 47 179.5t141 60.5q34 0 60 -11t47 -27.5t38.5 -35.5t35 -35.5t36 -27.5t41.5 -11q25 0 41 14.5t25 36 t12.5 46.5t3.5 45h111q0 -119 -47.5 -179.5t-141.5 -60.5q-34 0 -60 11t-47 27t-38.5 35t-35 35t-36 27t-41.5 11q-25 0 -40.5 -14.5t-24.5 -35.5t-12 -45.5t-3 -44.5h-112zM227 289q0 -36 14.5 -71t43 -62.5t71.5 -44.5t101 -17q73 0 131.5 35t99.5 90t62.5 123t21.5 135 v45h-59q-41 0 -92.5 -1.5t-105.5 -8.5t-106 -21.5t-92.5 -40.5t-65 -65t-24.5 -96z" />
<glyph unicode="&#xe4;" d="M84 281q0 87 34.5 147t89.5 100t124.5 61.5t139.5 32.5t134.5 13t108.5 2h57v27q0 74 -19 125t-53.5 82.5t-81.5 45t-102 13.5q-64 0 -117.5 -15.5t-91.5 -34.5q-46 -22 -82 -49l-65 107q41 32 96 58q48 22 115 40.5t155 18.5q187 0 286 -100.5t99 -295.5v-659h-133v113 q0 19 0.5 35t1.5 27q1 13 2 24h-4q-27 -63 -75 -112q-20 -21 -46.5 -41t-60 -36t-74 -25.5t-88.5 -9.5q-65 0 -127.5 19t-112 57t-80 95.5t-30.5 134.5zM227 289q0 -36 14.5 -71t43 -62.5t71.5 -44.5t101 -17q73 0 131.5 35t99.5 90t62.5 123t21.5 135v45h-59 q-41 0 -92.5 -1.5t-105.5 -8.5t-106 -21.5t-92.5 -40.5t-65 -65t-24.5 -96zM313 1265v176h125v-176h-125zM622 1265v176h127v-176h-127z" />
<glyph unicode="&#xe5;" d="M84 281q0 87 34.5 147t89.5 100t124.5 61.5t139.5 32.5t134.5 13t108.5 2h57v27q0 74 -19 125t-53.5 82.5t-81.5 45t-102 13.5q-64 0 -117.5 -15.5t-91.5 -34.5q-46 -22 -82 -49l-65 107q41 32 96 58q48 22 115 40.5t155 18.5q187 0 286 -100.5t99 -295.5v-659h-133v113 q0 19 0.5 35t1.5 27q1 13 2 24h-4q-27 -63 -75 -112q-20 -21 -46.5 -41t-60 -36t-74 -25.5t-88.5 -9.5q-65 0 -127.5 19t-112 57t-80 95.5t-30.5 134.5zM227 289q0 -36 14.5 -71t43 -62.5t71.5 -44.5t101 -17q73 0 131.5 35t99.5 90t62.5 123t21.5 135v45h-59 q-41 0 -92.5 -1.5t-105.5 -8.5t-106 -21.5t-92.5 -40.5t-65 -65t-24.5 -96zM374 1320q0 32 12 59t33 46t49 29.5t60 10.5q31 0 59.5 -10.5t50 -29.5t34 -46t12.5 -59t-12.5 -59t-34 -46t-50 -29.5t-59.5 -10.5q-32 0 -60 10.5t-49 29.5t-33 46t-12 59zM463 1320 q0 -29 18 -48.5t47 -19.5q31 0 49.5 19.5t18.5 48.5q0 31 -18.5 50.5t-49.5 19.5q-29 0 -47 -19.5t-18 -50.5z" />
<glyph unicode="&#xe6;" horiz-adv-x="1782" d="M84 281q0 84 30 142.5t79.5 97.5t113.5 60.5t133 32t137 13t125 2.5h68v35q0 74 -19 125t-53.5 82.5t-83 45t-106.5 13.5q-62 0 -114 -15.5t-90 -34.5q-45 -22 -81 -49l-63 105q40 33 94 59q46 23 111.5 41.5t150.5 18.5q77 0 135 -15t100.5 -43t70 -67.5t42.5 -87.5h4 q63 106 163 159.5t226 53.5q104 0 183.5 -38t133.5 -101.5t81.5 -147.5t27.5 -176q0 -12 -0.5 -25.5t-1.5 -25.5q-1 -14 -2 -27h-774q2 -102 32.5 -179.5t82 -129.5t120.5 -78.5t150 -26.5q70 0 127 19.5t99 42.5q48 27 86 63l63 -106q-45 -40 -103 -72q-50 -27 -120 -49.5 t-158 -22.5q-79 0 -149 20t-128 57t-103 90t-73 120h-4q-4 -13 -15.5 -39.5t-31.5 -58.5t-50.5 -65.5t-72 -61t-96 -45t-123.5 -17.5q-71 0 -135 20t-112.5 58.5t-77.5 95.5t-29 132zM227 289q0 -38 14.5 -73t43.5 -62t72.5 -43.5t101.5 -16.5q73 0 131.5 35t98.5 90 t61.5 123.5t21.5 136.5v35h-121q-44 0 -92 -2t-95 -9.5t-90 -22t-75.5 -39.5t-52 -62t-19.5 -90zM913 629h629q-3 81 -28.5 139t-65.5 95.5t-91 55t-106 17.5q-64 0 -120 -19t-100.5 -57t-75 -95.5t-42.5 -135.5z" />
<glyph unicode="&#xe7;" horiz-adv-x="1126" d="M98 514q0 119 42 218.5t115 171t171.5 111.5t212.5 40q95 0 165 -23t118 -51q55 -33 94 -74l-72 -104q-35 35 -81 62q-39 23 -94.5 43t-125.5 20q-84 0 -157.5 -30t-127.5 -84.5t-85 -131t-31 -168.5q0 -91 31.5 -167t86 -131t128.5 -85.5t159 -30.5q78 0 139.5 22.5 t103.5 50.5q49 32 87 73l63 -109q-42 -44 -98 -78q-49 -29 -120 -55t-165 -29l-16 -88q62 -9 102.5 -46t40.5 -99q0 -45 -16.5 -75.5t-44 -50t-63 -28t-72.5 -8.5q-23 0 -42 1.5t-33 3.5q-16 2 -28 5v99q11 -4 25 -7q12 -2 27.5 -4t33.5 -2q20 0 39 3t33.5 11t23.5 21.5 t9 34.5q0 34 -31.5 52t-85.5 18q-6 0 -11.5 -0.5t-10.5 -0.5q-5 -1 -9 -1l39 166q-101 11 -187 54.5t-148.5 113t-98 162.5t-35.5 204z" />
<glyph unicode="&#xe8;" horiz-adv-x="1133" d="M96 514q0 127 40.5 227t109.5 170t161.5 107t196.5 37q107 0 187.5 -38t134.5 -103.5t81 -151.5t27 -182q0 -10 -0.5 -22t-1.5 -23q-1 -13 -2 -27h-790q2 -99 35 -175t87 -128t125.5 -78.5t151.5 -26.5q71 0 128 19.5t99 42.5q48 27 86 63l64 -106q-46 -40 -104 -72 q-50 -27 -120 -49.5t-157 -22.5q-115 0 -213.5 39.5t-171 111t-113.5 170.5t-41 218zM246 623h647q-3 81 -27.5 140t-64.5 98t-91.5 58t-109.5 19q-65 0 -123.5 -20.5t-105.5 -60t-80 -98.5t-45 -136zM369 1441h161l142 -244h-127z" />
<glyph unicode="&#xe9;" horiz-adv-x="1133" d="M96 514q0 127 40.5 227t109.5 170t161.5 107t196.5 37q107 0 187.5 -38t134.5 -103.5t81 -151.5t27 -182q0 -10 -0.5 -22t-1.5 -23q-1 -13 -2 -27h-790q2 -99 35 -175t87 -128t125.5 -78.5t151.5 -26.5q71 0 128 19.5t99 42.5q48 27 86 63l64 -106q-46 -40 -104 -72 q-50 -27 -120 -49.5t-157 -22.5q-115 0 -213.5 39.5t-171 111t-113.5 170.5t-41 218zM246 623h647q-3 81 -27.5 140t-64.5 98t-91.5 58t-109.5 19q-65 0 -123.5 -20.5t-105.5 -60t-80 -98.5t-45 -136zM539 1197l141 244h162l-176 -244h-127z" />
<glyph unicode="&#xea;" horiz-adv-x="1133" d="M96 514q0 127 40.5 227t109.5 170t161.5 107t196.5 37q107 0 187.5 -38t134.5 -103.5t81 -151.5t27 -182q0 -10 -0.5 -22t-1.5 -23q-1 -13 -2 -27h-790q2 -99 35 -175t87 -128t125.5 -78.5t151.5 -26.5q71 0 128 19.5t99 42.5q48 27 86 63l64 -106q-46 -40 -104 -72 q-50 -27 -120 -49.5t-157 -22.5q-115 0 -213.5 39.5t-171 111t-113.5 170.5t-41 218zM246 623h647q-3 81 -27.5 140t-64.5 98t-91.5 58t-109.5 19q-65 0 -123.5 -20.5t-105.5 -60t-80 -98.5t-45 -136zM358 1197l170 244h154l172 -244h-135l-111 166h-4l-111 -166h-135z" />
<glyph unicode="&#xeb;" horiz-adv-x="1133" d="M96 514q0 127 40.5 227t109.5 170t161.5 107t196.5 37q107 0 187.5 -38t134.5 -103.5t81 -151.5t27 -182q0 -10 -0.5 -22t-1.5 -23q-1 -13 -2 -27h-790q2 -99 35 -175t87 -128t125.5 -78.5t151.5 -26.5q71 0 128 19.5t99 42.5q48 27 86 63l64 -106q-46 -40 -104 -72 q-50 -27 -120 -49.5t-157 -22.5q-115 0 -213.5 39.5t-171 111t-113.5 170.5t-41 218zM246 623h647q-3 81 -27.5 140t-64.5 98t-91.5 58t-109.5 19q-65 0 -123.5 -20.5t-105.5 -60t-80 -98.5t-45 -136zM389 1265v176h125v-176h-125zM698 1265v176h127v-176h-127z" />
<glyph unicode="&#xec;" horiz-adv-x="475" d="M1 1441h161l142 -244h-127zM168 0v1030h139v-1030h-139z" />
<glyph unicode="&#xed;" horiz-adv-x="475" d="M168 0v1030h139v-1030h-139zM173 1197l141 244h162l-176 -244h-127z" />
<glyph unicode="&#xee;" horiz-adv-x="475" d="M-7 1197l170 244h154l172 -244h-135l-111 166h-4l-111 -166h-135zM168 0v1030h139v-1030h-139z" />
<glyph unicode="&#xef;" horiz-adv-x="475" d="M24 1265v176h125v-176h-125zM168 0v1030h139v-1030h-139zM333 1265v176h127v-176h-127z" />
<glyph unicode="&#xf0;" horiz-adv-x="1204" d="M100 475q0 91 31.5 178t93 154t153 108t212.5 41q74 0 129 -17.5t92 -37.5q43 -25 74 -55h4q-37 106 -101.5 185.5t-152.5 139.5l-361 -163l-26 98l276 129q-133 68 -291 104l41 119q100 -25 203 -63t199 -95l268 121l27 -98l-199 -92q67 -52 123.5 -120t97.5 -151.5 t64.5 -183.5t23.5 -217q0 -69 -12.5 -138.5t-39 -134.5t-67.5 -121.5t-97.5 -99t-129 -66.5t-162.5 -24q-113 0 -201 42.5t-148.5 113t-92 160t-31.5 184.5zM244 473q0 -71 22 -138t64 -119t104.5 -84t143.5 -32q95 0 163 40t112 102.5t64.5 139t20.5 150.5q0 66 -24 122.5 t-67.5 97t-105.5 63.5t-137 23q-92 0 -160 -31.5t-112.5 -83t-66 -117t-21.5 -133.5z" />
<glyph unicode="&#xf1;" horiz-adv-x="1214" d="M168 0v1030h137v-153q0 -17 -0.5 -32t-1.5 -26q-1 -13 -2 -24h4q14 35 45.5 80t82.5 85t121.5 67.5t162.5 27.5q95 0 161 -27t106.5 -78t58.5 -125.5t18 -169.5v-655h-139v618q0 61 -7 116.5t-30.5 97.5t-67.5 67t-119 25q-66 0 -126 -21.5t-109.5 -60t-85 -92 t-53.5 -117.5q-10 -32 -13.5 -67t-3.5 -72v-494h-139zM318 1203q0 119 47 179.5t141 60.5q34 0 60 -11t47 -27.5t38.5 -35.5t35 -35.5t36 -27.5t41.5 -11q25 0 41 14.5t25 36t12.5 46.5t3.5 45h111q0 -119 -47.5 -179.5t-141.5 -60.5q-34 0 -60 11t-47 27t-38.5 35t-35 35 t-36 27t-41.5 11q-25 0 -40.5 -14.5t-24.5 -35.5t-12 -45.5t-3 -44.5h-112z" />
<glyph unicode="&#xf2;" horiz-adv-x="1274" d="M92 520q0 114 43 212t117 170t173 112.5t212 40.5t212 -40.5t173 -112.5t117 -170t43 -212q0 -117 -43 -216.5t-117 -172.5t-173 -114.5t-212 -41.5t-212 41.5t-173 114.5t-117 172.5t-43 216.5zM236 520q0 -90 31.5 -166.5t86 -133t127.5 -88.5t156 -32t156 32 t127.5 88.5t86 133t31.5 166.5q0 88 -31.5 162.5t-86 129t-127.5 85.5t-156 31t-156 -31t-127.5 -85.5t-86 -129t-31.5 -162.5zM400 1441h161l142 -244h-127z" />
<glyph unicode="&#xf3;" horiz-adv-x="1274" d="M92 520q0 114 43 212t117 170t173 112.5t212 40.5t212 -40.5t173 -112.5t117 -170t43 -212q0 -117 -43 -216.5t-117 -172.5t-173 -114.5t-212 -41.5t-212 41.5t-173 114.5t-117 172.5t-43 216.5zM236 520q0 -90 31.5 -166.5t86 -133t127.5 -88.5t156 -32t156 32 t127.5 88.5t86 133t31.5 166.5q0 88 -31.5 162.5t-86 129t-127.5 85.5t-156 31t-156 -31t-127.5 -85.5t-86 -129t-31.5 -162.5zM572 1197l141 244h162l-176 -244h-127z" />
<glyph unicode="&#xf4;" horiz-adv-x="1274" d="M92 520q0 114 43 212t117 170t173 112.5t212 40.5t212 -40.5t173 -112.5t117 -170t43 -212q0 -117 -43 -216.5t-117 -172.5t-173 -114.5t-212 -41.5t-212 41.5t-173 114.5t-117 172.5t-43 216.5zM236 520q0 -90 31.5 -166.5t86 -133t127.5 -88.5t156 -32t156 32 t127.5 88.5t86 133t31.5 166.5q0 88 -31.5 162.5t-86 129t-127.5 85.5t-156 31t-156 -31t-127.5 -85.5t-86 -129t-31.5 -162.5zM389 1197l170 244h154l172 -244h-135l-111 166h-4l-111 -166h-135z" />
<glyph unicode="&#xf5;" horiz-adv-x="1274" d="M92 520q0 114 43 212t117 170t173 112.5t212 40.5t212 -40.5t173 -112.5t117 -170t43 -212q0 -117 -43 -216.5t-117 -172.5t-173 -114.5t-212 -41.5t-212 41.5t-173 114.5t-117 172.5t-43 216.5zM236 520q0 -90 31.5 -166.5t86 -133t127.5 -88.5t156 -32t156 32 t127.5 88.5t86 133t31.5 166.5q0 88 -31.5 162.5t-86 129t-127.5 85.5t-156 31t-156 -31t-127.5 -85.5t-86 -129t-31.5 -162.5zM318 1203q0 119 47 179.5t141 60.5q34 0 60 -11t47 -27.5t38.5 -35.5t35 -35.5t36 -27.5t41.5 -11q25 0 41 14.5t25 36t12.5 46.5t3.5 45h111 q0 -119 -47.5 -179.5t-141.5 -60.5q-34 0 -60 11t-47 27t-38.5 35t-35 35t-36 27t-41.5 11q-25 0 -40.5 -14.5t-24.5 -35.5t-12 -45.5t-3 -44.5h-112z" />
<glyph unicode="&#xf6;" horiz-adv-x="1274" d="M92 520q0 114 43 212t117 170t173 112.5t212 40.5t212 -40.5t173 -112.5t117 -170t43 -212q0 -117 -43 -216.5t-117 -172.5t-173 -114.5t-212 -41.5t-212 41.5t-173 114.5t-117 172.5t-43 216.5zM236 520q0 -90 31.5 -166.5t86 -133t127.5 -88.5t156 -32t156 32 t127.5 88.5t86 133t31.5 166.5q0 88 -31.5 162.5t-86 129t-127.5 85.5t-156 31t-156 -31t-127.5 -85.5t-86 -129t-31.5 -162.5zM420 1265v176h125v-176h-125zM729 1265v176h127v-176h-127z" />
<glyph unicode="&#xf7;" horiz-adv-x="1323" d="M160 522v119h1003v-119h-1003zM584 125v151h153v-151h-153zM584 887v151h153v-151h-153z" />
<glyph unicode="&#xf8;" horiz-adv-x="1278" d="M94 520q0 114 43 212t117 170t173 112.5t212 40.5q77 0 147 -19.5t132 -54.5l79 111l84 -62l-77 -110q83 -73 131.5 -175.5t48.5 -224.5q0 -117 -43 -216.5t-117 -172.5t-173 -114.5t-212 -41.5q-72 0 -138.5 17.5t-125.5 48.5l-78 -109l-84 62l76 104q-90 75 -142.5 183 t-52.5 239zM238 520q0 -96 34.5 -175t94.5 -136l475 663q-45 26 -96 41t-107 15q-83 0 -156 -31t-127.5 -85.5t-86 -129t-31.5 -162.5zM451 147q42 -23 89.5 -35t98.5 -12q83 0 156 32t127.5 88.5t86 133t31.5 166.5q0 87 -31 161t-85 128z" />
<glyph unicode="&#xf9;" horiz-adv-x="1204" d="M154 375v655h139v-618q0 -61 7 -116.5t30 -97.5t67 -67t119 -25q88 0 159 36t120 95.5t75.5 137.5t26.5 162v493h139v-1030h-135v154q0 17 0.5 32t1.5 26q1 13 2 24h-4q-15 -38 -48 -83.5t-83.5 -85t-118.5 -66t-153 -26.5q-91 0 -156 24.5t-107 74.5t-61.5 125 t-19.5 176zM360 1441h161l142 -244h-127z" />
<glyph unicode="&#xfa;" horiz-adv-x="1204" d="M154 375v655h139v-618q0 -61 7 -116.5t30 -97.5t67 -67t119 -25q88 0 159 36t120 95.5t75.5 137.5t26.5 162v493h139v-1030h-135v154q0 17 0.5 32t1.5 26q1 13 2 24h-4q-15 -38 -48 -83.5t-83.5 -85t-118.5 -66t-153 -26.5q-91 0 -156 24.5t-107 74.5t-61.5 125 t-19.5 176zM529 1197l141 244h162l-176 -244h-127z" />
<glyph unicode="&#xfb;" horiz-adv-x="1204" d="M154 375v655h139v-618q0 -61 7 -116.5t30 -97.5t67 -67t119 -25q88 0 159 36t120 95.5t75.5 137.5t26.5 162v493h139v-1030h-135v154q0 17 0.5 32t1.5 26q1 13 2 24h-4q-15 -38 -48 -83.5t-83.5 -85t-118.5 -66t-153 -26.5q-91 0 -156 24.5t-107 74.5t-61.5 125 t-19.5 176zM348 1197l170 244h154l172 -244h-135l-111 166h-4l-111 -166h-135z" />
<glyph unicode="&#xfc;" horiz-adv-x="1204" d="M154 375v655h139v-618q0 -61 7 -116.5t30 -97.5t67 -67t119 -25q88 0 159 36t120 95.5t75.5 137.5t26.5 162v493h139v-1030h-135v154q0 17 0.5 32t1.5 26q1 13 2 24h-4q-15 -38 -48 -83.5t-83.5 -85t-118.5 -66t-153 -26.5q-91 0 -156 24.5t-107 74.5t-61.5 125 t-19.5 176zM379 1265v176h125v-176h-125zM688 1265v176h127v-176h-127z" />
<glyph unicode="&#xfd;" horiz-adv-x="1022" d="M14 -369l54 111q18 -13 37 -24q17 -9 38.5 -16t46.5 -7q34 0 63 13t53 35.5t44 53.5t35 66l64 145l-431 1022h154l303 -751q8 -20 14.5 -39t11.5 -35q6 -18 11 -35h4l10 35q5 16 11 35t14 39l297 751h151l-507 -1245q-41 -98 -117.5 -156.5t-179.5 -58.5q-41 0 -74 9.5 t-57 20.5q-28 13 -50 31zM447 1197l141 244h162l-176 -244h-127z" />
<glyph unicode="&#xfe;" horiz-adv-x="1206" d="M168 -410v1850h139v-498q0 -19 -0.5 -34t-0.5 -26q-1 -13 -1 -24h4q3 3 12.5 19t27 37.5t44 46.5t64 45.5t86.5 34.5t112 14q105 0 188.5 -40t142 -111.5t89.5 -170.5t31 -217q0 -121 -34 -220.5t-95 -171t-146 -110.5t-186 -39q-47 0 -87 8.5t-72.5 22t-58.5 31.5 t-46 36q-47 43 -74 99h-4q1 -11 2 -25q1 -12 1.5 -28.5t0.5 -36.5v-492h-139zM303 514q0 -83 22 -158t64.5 -132t104 -90.5t139.5 -33.5q69 0 129 28.5t105 82.5t70.5 131t25.5 174q0 93 -24 169t-67 130t-102.5 83.5t-130.5 29.5q-66 0 -127 -23t-107.5 -73t-74 -128.5 t-27.5 -189.5z" />
<glyph unicode="&#xff;" horiz-adv-x="1022" d="M14 -369l54 111q18 -13 37 -24q17 -9 38.5 -16t46.5 -7q34 0 63 13t53 35.5t44 53.5t35 66l64 145l-431 1022h154l303 -751q8 -20 14.5 -39t11.5 -35q6 -18 11 -35h4l10 35q5 16 11 35t14 39l297 751h151l-507 -1245q-41 -98 -117.5 -156.5t-179.5 -58.5q-41 0 -74 9.5 t-57 20.5q-28 13 -50 31zM298 1265v176h125v-176h-125zM607 1265v176h127v-176h-127z" />
<glyph unicode="&#x152;" horiz-adv-x="1952" d="M113 721q0 103 24.5 198t70.5 177.5t111.5 149.5t147 114.5t177.5 73.5t202 26q31 0 64 -3t64.5 -7t61 -7t54.5 -3h710v-127h-667v-525h544v-126h-544v-535h704v-127h-745q-24 0 -53.5 -3t-62 -7t-66 -7t-64.5 -3q-107 0 -202.5 26t-177 73.5t-147 114.5t-111.5 149 t-70.5 178t-24.5 200zM260 721q0 -130 42.5 -241.5t119.5 -194t185 -129.5t239 -47q29 0 55 2t46 5q23 3 42 7v1192q-19 4 -42 8q-20 3 -46 5.5t-55 2.5q-131 0 -239 -47t-185 -129t-119.5 -193.5t-42.5 -240.5z" />
<glyph unicode="&#x153;" horiz-adv-x="2075" d="M94 512q0 123 43.5 223t117.5 171.5t172 110t208 38.5q78 0 148 -19.5t129.5 -55.5t107 -87t80.5 -115h4q30 66 74.5 117.5t101 87t123.5 54t141 18.5q107 0 188 -38t135 -103.5t81.5 -151.5t27.5 -182q0 -10 -0.5 -22t-1.5 -23q-1 -13 -2 -27h-790q4 -101 38 -177.5 t88.5 -127.5t124.5 -77t148 -26q71 0 128 19.5t98 42.5q48 27 85 63l66 -106q-45 -40 -104 -72q-51 -27 -121 -49.5t-158 -22.5q-81 0 -152.5 19.5t-131.5 56.5t-107 88.5t-78 116.5h-4q-32 -65 -79.5 -117t-107.5 -88.5t-131 -56t-149 -19.5q-110 0 -208 38t-172 108 t-117.5 169.5t-43.5 221.5zM238 512q0 -93 31.5 -169t86 -130t127 -83.5t154.5 -29.5q81 0 153.5 29.5t127 84.5t86.5 132.5t32 173.5q0 94 -32.5 169.5t-87 128.5t-127 81.5t-152.5 28.5q-82 0 -154.5 -30t-127 -84.5t-86 -131t-31.5 -170.5zM1188 623h645q-3 81 -27 140 t-63.5 98t-91 58t-109.5 19q-65 0 -123.5 -20.5t-105.5 -60t-80 -98.5t-45 -136z" />
<glyph unicode="&#x178;" horiz-adv-x="1176" d="M31 1440h162l305 -522q16 -28 31.5 -58t28.5 -56q15 -30 28 -59h4q13 28 27 58q12 26 28 56t33 59l305 522h160l-484 -822v-618h-143v618zM360 1608v176h125v-176h-125zM669 1608v176h127v-176h-127z" />
<glyph unicode="&#x2c6;" horiz-adv-x="1032" d="M268 1540l170 244h154l172 -244h-135l-111 166h-4l-111 -166h-135z" />
<glyph unicode="&#x2dc;" horiz-adv-x="1032" d="M197 1546q0 119 47 179.5t141 60.5q34 0 60 -11t47 -27.5t38.5 -35.5t35 -35.5t36 -27.5t41.5 -11q25 0 41 14.5t25 36t12.5 46.5t3.5 45h111q0 -119 -47.5 -179.5t-141.5 -60.5q-34 0 -60 11t-47 27t-38.5 35t-35 35t-36 27t-41.5 11q-25 0 -40.5 -14.5t-24.5 -35.5 t-12 -45.5t-3 -44.5h-112z" />
<glyph unicode="&#x2000;" horiz-adv-x="904" />
<glyph unicode="&#x2001;" horiz-adv-x="1808" />
<glyph unicode="&#x2002;" horiz-adv-x="904" />
<glyph unicode="&#x2003;" horiz-adv-x="1808" />
<glyph unicode="&#x2004;" horiz-adv-x="602" />
<glyph unicode="&#x2005;" horiz-adv-x="452" />
<glyph unicode="&#x2006;" horiz-adv-x="301" />
<glyph unicode="&#x2007;" horiz-adv-x="301" />
<glyph unicode="&#x2008;" horiz-adv-x="226" />
<glyph unicode="&#x2009;" horiz-adv-x="361" />
<glyph unicode="&#x200a;" horiz-adv-x="100" />
<glyph unicode="&#x2010;" horiz-adv-x="1008" d="M213 518v127h582v-127h-582z" />
<glyph unicode="&#x2011;" horiz-adv-x="1008" d="M213 518v127h582v-127h-582z" />
<glyph unicode="&#x2012;" horiz-adv-x="1008" d="M213 518v127h582v-127h-582z" />
<glyph unicode="&#x2013;" horiz-adv-x="1450" d="M213 522v119h1024v-119h-1024z" />
<glyph unicode="&#x2014;" horiz-adv-x="1860" d="M213 522v119h1434v-119h-1434z" />
<glyph unicode="&#x2018;" horiz-adv-x="440" d="M115 1106l116 352h111l-80 -352h-147z" />
<glyph unicode="&#x2019;" horiz-adv-x="428" d="M117 1108l80 352h147l-115 -352h-112z" />
<glyph unicode="&#x201a;" horiz-adv-x="487" d="M104 -184l80 352h146l-115 -352h-111z" />
<glyph unicode="&#x201c;" horiz-adv-x="686" d="M115 1106l116 352h111l-80 -352h-147zM360 1106l115 352h113l-80 -352h-148z" />
<glyph unicode="&#x201d;" horiz-adv-x="674" d="M117 1108l80 352h147l-115 -352h-112zM362 1108l80 352h148l-115 -352h-113z" />
<glyph unicode="&#x201e;" horiz-adv-x="729" d="M104 -184l80 352h146l-115 -352h-111zM346 -184l80 352h145l-114 -352h-111z" />
<glyph unicode="&#x2022;" horiz-adv-x="821" d="M119 596q0 61 23 114t62.5 93t93 63t114.5 23q60 0 113 -23t92.5 -63t62 -93t22.5 -114t-22.5 -114.5t-62 -93t-92.5 -62.5t-113 -23q-61 0 -114.5 23t-93 62.5t-62.5 93t-23 114.5z" />
<glyph unicode="&#x2026;" horiz-adv-x="1464" d="M172 0v164h158v-164h-158zM653 0v164h158v-164h-158zM1135 0v164h157v-164h-157z" />
<glyph unicode="&#x202f;" horiz-adv-x="361" />
<glyph unicode="&#x2039;" horiz-adv-x="702" d="M102 578l336 421h150l-336 -421l336 -420h-150z" />
<glyph unicode="&#x203a;" horiz-adv-x="705" d="M115 158l336 420l-336 421h151l336 -421l-336 -420h-151z" />
<glyph unicode="&#x205f;" horiz-adv-x="452" />
<glyph unicode="&#x20ac;" horiz-adv-x="1208" d="M84 545v104h113q-3 14 -4 34.5t-1 44t1 46.5t4 41h-113v105h131q30 119 93.5 219t153.5 172t202 112.5t239 40.5q42 0 77.5 -3.5t61.5 -8.5q31 -5 56 -12l-35 -133q-23 6 -49 11q-23 4 -52 7.5t-61 3.5q-98 0 -184 -29.5t-155 -83.5t-119 -129.5t-76 -166.5h626l-20 -105 h-629q-6 -38 -6.5 -82t4.5 -84h600l-20 -104h-557q24 -96 73.5 -176t119.5 -137t158 -89t189 -32q38 0 71.5 4.5t58.5 9.5q29 6 52 14l33 -133q-28 -9 -62 -16q-29 -6 -69 -10.5t-86 -4.5q-131 0 -245 42t-204.5 117.5t-153 180.5t-89.5 230h-127z" />
<glyph unicode="&#x2122;" horiz-adv-x="1909" d="M55 1333v107h758v-107h-321v-790h-117v790h-320zM887 543l71 897h107l235 -514q7 -15 12.5 -30t9.5 -27q4 -14 7 -27h4q3 13 7 27l9 27t13 30l235 514h107l70 -897h-113l-51 608q-2 24 0 41q1 10 2 18h-4l-230 -499h-94l-229 499h-4q1 -8 2 -18q2 -17 0 -41l-52 -608 h-114z" />
<glyph unicode="&#x25fc;" horiz-adv-x="1030" d="M0 0v1030h1030v-1030h-1030z" />
</font>
</defs>
</svg>
